<?xml version="1.0" standalone="no"?>
<!DOCTYPE svg PUBLIC "-//W3C//DTD SVG 1.1//EN" "http://www.w3.org/Graphics/SVG/1.1/DTD/svg11.dtd" >
<svg xmlns="http://www.w3.org/2000/svg">
<metadata>Generated by IcoMoon</metadata>
<defs>
<font id="font-apex" horiz-adv-x="1024">
<font-face units-per-em="1024" ascent="960" descent="-64" />
<missing-glyph horiz-adv-x="1024" />
<glyph unicode="&#x20;" horiz-adv-x="512" d="" />
<glyph unicode="&#x2639;" glyph-name="emoji-frown" d="M512 960c-282.304 0-512-229.696-512-512s229.696-512 512-512 512 229.696 512 512-229.696 512-512 512zM512 0c-247.040 0-448 200.96-448 448s200.96 448 448 448 448-200.96 448-448-200.96-448-448-448zM384 576c0-35.346-28.654-64-64-64s-64 28.654-64 64c0 35.346 28.654 64 64 64s64-28.654 64-64zM768 576c0-35.346-28.654-64-64-64s-64 28.654-64 64c0 35.346 28.654 64 64 64s64-28.654 64-64zM512 384c-97.792 0-186.88-57.664-226.944-146.88-7.232-16.128 0-35.072 16.064-42.304 16.32-7.36 35.136-0.064 42.304 16.064 29.824 66.304 95.936 109.12 168.576 109.12s138.752-42.816 168.576-109.12c5.312-11.84 16.96-18.88 29.184-18.88 4.352 0 8.832 0.896 13.12 2.816 16.064 7.232 23.296 26.176 16.064 42.304-40.064 89.216-129.152 146.88-226.944 146.88z" />
<glyph unicode="&#x263a;" glyph-name="emoji-pleased" d="M512 960c-282.304 0-512-229.696-512-512s229.696-512 512-512 512 229.696 512 512-229.696 512-512 512zM512 0c-246.976 0-448 201.024-448 448 0 247.040 201.024 448 448 448s448-200.96 448-448c0-246.976-201.024-448-448-448zM615.36 308.352c-56-67.52-150.72-67.52-206.72 0-11.328 13.76-31.488 15.488-44.992 4.224-13.632-11.264-15.552-31.424-4.224-44.992 40.256-48.704 94.528-75.584 152.576-75.584s112.32 26.88 152.64 75.648c11.328 13.568 9.344 33.728-4.224 44.992-13.632 11.2-33.792 9.408-45.056-4.288zM384 672c0 17.664-14.336 32-32 32-58.048 0-112.256-26.816-152.64-75.584-11.328-13.632-9.344-33.792 4.224-45.056 5.952-4.928 13.248-7.36 20.416-7.36 9.216 0 18.304 3.968 24.64 11.584 27.968 33.792 64.704 52.416 103.36 52.416 17.664 0 32 14.336 32 32zM824.64 628.416c-40.384 48.768-94.592 75.584-152.64 75.584-17.664 0-32-14.336-32-32s14.336-32 32-32c38.656 0 75.392-18.624 103.36-52.416 6.336-7.616 15.424-11.584 24.64-11.584 7.168 0 14.464 2.432 20.416 7.36 13.568 11.264 15.552 31.424 4.224 45.056zM384 416c0-17.664 14.336-32 32-32s32 14.336 32 32c0 52.928-43.072 96-96 96s-96-43.072-96-96c0-17.664 14.336-32 32-32s32 14.336 32 32c0 17.664 14.4 32 32 32s32-14.336 32-32zM672 512c-52.928 0-96-43.072-96-96 0-17.664 14.336-32 32-32s32 14.336 32 32c0 17.664 14.4 32 32 32s32-14.336 32-32c0-17.664 14.336-32 32-32s32 14.336 32 32c0 52.928-43.072 96-96 96z" />
<glyph unicode="&#xe900;" glyph-name="oracle" d="M984.96 488.64c0-7.104-5.824-12.928-12.928-12.928s-12.928 5.824-12.928 12.928c0 7.168 5.824 12.928 12.928 12.928s12.928-5.76 12.928-12.928zM961.856 488.704c0-5.632 4.544-10.176 10.176-10.176s10.176 4.544 10.176 10.176c0 5.632-4.544 10.176-10.176 10.176-5.696-0.064-10.176-4.608-10.176-10.176zM977.344 491.84l-0.128-1.216-1.792-2.496-0.64-0.32 3.328-6.016h-3.264l-2.944 5.568h-1.984v-5.568h-2.816v14.528h3.648l3.84-0.384 2.752-4.096zM973.44 493.696l-2.688 0.256h-0.768v-4.16h1.792l2.432 0.896 0.32 1.28-1.088 1.728zM707.52 389.952l-8.064 3.328-3.2 7.68v104h22.080v-94.784h102.912l-12.992-20.288h-100.736zM875.2 410.176h79.616l-12.992-20.288h-68.16c-31.68 0-57.408 25.728-57.408 57.536s25.728 57.536 57.408 57.536h79.36l-12.992-20.288h-64.832c-17.024 0-31.36-11.456-35.776-27.136h107.456l-12.992-20.288h-94.4c4.352-15.616 18.752-27.072 35.712-27.072zM606.528 410.176h79.68l-12.992-20.288h-68.16c-31.68 0-57.408 25.728-57.408 57.536s25.728 57.536 57.408 57.536h79.36l-13.056-20.288h-64.832c-20.544 0-37.184-16.704-37.184-37.248s16.64-37.248 37.184-37.248zM418.56 389.952l-26.048-0.064 69.568 109.12c2.944 4.416 8.064 7.104 13.568 7.104s10.496-2.624 13.44-6.912l69.824-109.312-26.048 0.064-12.224 20.288h-59.712l-13.056 20.288h58.944l-31.104 50.24-57.152-90.816zM256.256 389.952v115.008h96.64c21.44 0 38.848-17.408 38.848-38.912s-17.408-38.912-38.848-38.912h-10.112l44.352-37.248h-32.064l-65.92 57.536h62.272c10.304 0 18.56 8.32 18.56 18.624s-8.256 18.624-18.56 18.624h-73.088v-94.784h-22.080zM187.072 504.96c31.744 0 57.408-25.728 57.408-57.536s-25.728-57.536-57.408-57.536l-66.752 0.064c-31.744 0-56.32 25.728-56.32 57.472 0 31.808 24.576 57.536 56.32 57.536h66.752zM84.608 447.424c0-20.544 16.64-37.248 37.184-37.248h63.808c20.544 0 37.184 16.704 37.184 37.248 0 20.608-16.64 37.248-37.184 37.248h-63.808c-20.544 0-37.184-16.64-37.184-37.248z" />
<glyph unicode="&#xe901;" glyph-name="oracle-o" d="M362.88 191.552c-141.696 0-256.64 114.496-256.64 255.872s114.944 255.936 256.64 255.936h298.368c141.76 0 256.64-114.56 256.64-255.936 0-141.44-114.88-256.064-256.64-256.064l-298.368 0.192zM654.528 281.792c91.84 0 166.208 74.176 166.208 165.696s-74.368 165.696-166.208 165.696l-285.056 0.064c-91.776 0-166.144-74.176-166.144-165.76 0-91.52 74.368-165.696 166.144-165.696h285.056z" />
<glyph unicode="&#xe902;" glyph-name="oracle-o-square" d="M624.384 578.112l-224.768 0.064c-72.384 0-131.008-58.496-131.008-130.688 0-72.128 58.688-130.624 131.008-130.624h224.768c72.384 0 131.072 58.496 131.072 130.624 0 72.192-58.624 130.624-131.072 130.624zM832 896h-640c-70.72 0-128-57.28-128-128v-640c0-70.72 57.28-128 128-128h640c70.72 0 128 57.28 128 128v640c0 70.72-57.28 128-128 128zM629.632 245.568l-235.264 0.128c-111.744 0-202.368 90.304-202.368 201.792s90.624 201.856 202.368 201.856h235.264c111.808-0.064 202.368-90.432 202.368-201.856 0-111.552-90.56-201.92-202.368-201.92z" />
<glyph unicode="&#xe903;" glyph-name="apex" d="M271.36 501.696l53.184 53.184-184.32 184.32 81.536 81.536 184.32-184.32 53.184 53.184-184.32 184.384c-14.656 14.656-33.92 22.016-53.184 22.016s-38.464-7.36-53.184-22.016l-81.536-81.6c-29.376-29.376-29.376-76.992 0-106.368l184.32-184.32zM937.984 210.944l-184.32 184.32-53.184-53.184 184.32-184.32-81.536-81.536-184.32 184.32-53.248-53.184 184.32-184.32c14.656-14.656 33.92-22.016 53.184-22.016s38.528 7.36 53.184 22.016l81.536 81.536c29.44 29.376 29.44 76.992 0.064 106.368zM919.744 855.744c-51.392 51.392-135.616 52.288-187.072 0.896l-531.392-531.392c-26.112-26.112-47.168-56.832-62.208-90.56l-73.984-209.6c-5.248-14.912 9.088-29.248 24-24l209.6 73.984c33.728 14.976 64.448 36.096 90.56 62.208l531.392 531.392c51.392 51.392 50.496 135.68-0.896 187.072zM867.456 721.856l-531.392-531.392c-19.648-19.648-42.496-35.328-65.728-45.696l-103.872-42.304 42.304 103.872c10.368 23.232 26.048 46.080 45.696 65.728l531.392 531.392c10.688 10.688 24.832 16.512 39.872 16.512s30.144-6.72 40.768-17.408c10.688-10.688 17.408-25.728 17.408-40.768 0.064-15.104-5.824-29.248-16.448-39.936z" />
<glyph unicode="&#xe904;" glyph-name="apex-square" d="M832 896h-640c-70.72 0-128-57.28-128-128v-640c0-70.72 57.28-128 128-128h640c70.72 0 128 57.28 128 128v640c0 70.72-57.28 128-128 128zM208.448 694.016l58.24 58.24c10.496 10.496 24.256 15.744 38.016 15.744s27.52-5.248 38.016-15.744l131.712-131.712-38.080-37.952-131.712 131.648-58.176-58.24 131.648-131.648-38.016-38.016-131.648 131.712c-20.992 20.928-20.992 54.976 0 75.968zM359.616 181.632l-149.696-52.864c-10.624-3.776-20.928 6.528-17.152 17.152l52.864 149.696c10.688 24.128 25.792 46.016 44.416 64.64l379.584 379.584c36.736 36.736 96.896 36.096 133.632-0.64s37.376-96.896 0.64-133.632l-379.584-379.52c-18.688-18.624-40.576-33.664-64.704-44.416zM816.256 202.688l-58.24-58.24c-10.496-10.496-24.256-15.744-38.016-15.744s-27.52 5.248-38.016 15.744l-131.648 131.648 38.016 38.016 131.648-131.648 58.24 58.24-131.648 131.648 38.016 38.016 131.648-131.648c20.992-20.992 20.992-55.040 0-76.032zM765.248 701.248c-7.616 7.616-18.368 12.416-29.12 12.416s-20.864-4.16-28.48-11.776l-379.584-379.584c-14.016-14.016-25.28-30.336-32.64-46.912l-30.208-74.176 74.176 30.208c16.576 7.424 32.896 18.624 46.912 32.64l379.584 379.584c7.616 7.616 11.776 17.728 11.776 28.48s-4.8 21.504-12.416 29.12z" />
<glyph unicode="&#xe905;" glyph-name="bar-chart-horizontal" d="M992 128h-928v128h480c17.664 0 32 14.336 32 32v192c0 17.664-14.336 32-32 32h-480v128h864c17.664 0 32 14.336 32 32v192c0 17.664-14.336 32-32 32h-896c-17.664 0-32-14.336-32-32v-768c0-17.664 14.336-32 32-32h960c17.664 0 32 14.336 32 32s-14.336 32-32 32zM64 832h832v-128h-832v128zM64 448h448v-128h-448v128z" />
<glyph unicode="&#xe906;" glyph-name="bubble-chart" d="M992 128h-928v736c0 17.664-14.336 32-32 32s-32-14.336-32-32v-768c0-17.664 14.336-32 32-32h960c17.664 0 32 14.336 32 32s-14.336 32-32 32zM384 320c0-70.592 57.408-128 128-128s128 57.408 128 128-57.408 128-128 128-128-57.408-128-128zM576 320c0-35.264-28.672-64-64-64s-64 28.736-64 64 28.672 64 64 64 64-28.736 64-64zM256 384c70.592 0 128 57.408 128 128s-57.408 128-128 128-128-57.408-128-128 57.408-128 128-128zM256 576c35.328 0 64-28.736 64-64s-28.672-64-64-64-64 28.736-64 64 28.672 64 64 64zM832 320c70.592 0 128 57.408 128 128s-57.408 128-128 128-128-57.408-128-128 57.408-128 128-128zM832 512c35.328 0 64-28.736 64-64s-28.672-64-64-64-64 28.736-64 64 28.672 64 64 64zM544 512c88.256 0 160 71.808 160 160s-71.744 160-160 160-160-71.808-160-160 71.744-160 160-160zM544 768c52.928 0 96-43.072 96-96s-43.072-96-96-96-96 43.072-96 96 43.072 96 96 96z" />
<glyph unicode="&#xe907;" glyph-name="combo-chart" d="M992 640h-192c-17.664 0-32-14.336-32-32v-480h-64v352c0 17.664-14.336 32-32 32h-192c-17.664 0-32-14.336-32-32v-352h-64v224c0 17.664-14.336 32-32 32h-192c-17.664 0-32-14.336-32-32v-224h-64v736c0 17.664-14.336 32-32 32s-32-14.336-32-32v-768c0-17.664 14.336-32 32-32h960c17.664 0 32 14.336 32 32v512c0 17.664-14.336 32-32 32zM320 128h-128v192h128v-192zM640 128h-128v320h128v-320zM960 128h-128v448h128v-448zM160 505.536c3.968 0 8 0.704 11.904 2.304l832 332.864c16.448 6.592 24.384 25.216 17.792 41.6s-25.216 24.448-41.536 17.856l-832-332.864c-16.448-6.592-24.384-25.216-17.856-41.6 4.992-12.544 17.024-20.16 29.696-20.16z" />
<glyph unicode="&#xe908;" glyph-name="dial-gauge-chart" d="M789.568 681.472c12.48 12.48 12.48 32.768 0 45.248s-32.768 12.48-45.248 0l-167.488-167.424c-19.328 11.648-41.728 18.816-65.92 18.816-70.72 0-128-57.28-128-128s57.28-128 128-128 128 57.28 128 128c0 23.168-6.656 44.608-17.408 63.36l168.064 168zM510.976 386.112c-35.264 0-64 28.736-64 64s28.736 64 64 64 64-28.736 64-64-28.736-64-64-64zM480 768h64c17.664 0 32 14.336 32 32s-14.336 32-32 32h-64c-17.664 0-32-14.336-32-32s14.336-32 32-32zM160 512c-17.664 0-32-14.336-32-32v-64c0-17.664 14.336-32 32-32s32 14.336 32 32v64c0 17.664-14.336 32-32 32zM864 512c-17.664 0-32-14.336-32-32v-64c0-17.664 14.336-32 32-32s32 14.336 32 32v64c0 17.664-14.336 32-32 32zM263.104 742.144l-45.248-45.248c-12.48-12.48-12.48-32.768 0-45.248 6.272-6.272 14.464-9.344 22.656-9.344s16.384 3.136 22.656 9.344l45.248 45.248c12.48 12.48 12.48 32.768 0 45.248s-32.832 12.544-45.312 0zM760.896 244.352l-45.248-45.248c-12.48-12.48-12.48-32.768 0-45.248 6.272-6.272 14.464-9.344 22.656-9.344s16.384 3.136 22.656 9.344l45.248 45.248c12.48 12.48 12.48 32.768 0 45.248s-32.832 12.48-45.312 0zM263.104 244.352c-12.48 12.48-32.768 12.48-45.248 0s-12.48-32.768 0-45.248l45.248-45.248c6.272-6.272 14.464-9.344 22.656-9.344s16.384 3.136 22.656 9.344c12.48 12.48 12.48 32.768 0 45.248l-45.312 45.248zM512 960c-282.304 0-512-230.208-512-513.152 0-180.992 97.152-350.528 253.568-442.496 4.928-2.816 10.496-4.352 16.192-4.352h484.416c5.696 0 11.328 1.536 16.192 4.416 156.48 91.904 253.632 261.504 253.632 442.432 0 282.944-229.696 513.152-512 513.152zM745.344 64h-466.688c-132.608 81.408-214.656 227.328-214.656 382.848 0 247.68 200.96 449.152 448 449.152s448-201.472 448-449.152c0-155.52-82.048-301.44-214.656-382.848z" />
<glyph unicode="&#xe909;" glyph-name="donut-chart" d="M800 384h-192c-17.664 0-32-14.336-32-32 0-88.192-71.744-160-160-160s-160 71.808-160 160 71.744 160 160 160c17.664 0 32 14.336 32 32v192c0 17.664-14.336 32-32 32-229.376 0-416-186.624-416-416s186.624-416 416-416 416 186.624 416 416c0 17.664-14.336 32-32 32zM64 352c0 183.296 140.8 334.336 320 350.592v-128.832c-108.416-15.616-192-109.12-192-221.76 0-50.24 17.216-96.128 45.248-133.504l-91.584-91.584c-50.944 61.056-81.664 139.52-81.664 225.088zM416 0c-85.568 0-164.032 30.72-225.088 81.664l91.52 91.52c37.44-27.968 83.328-45.184 133.568-45.184 50.176 0 96.064 17.28 133.504 45.312l90.88-90.88c-61.056-50.88-138.88-82.432-224.384-82.432zM685.632 127.68l-90.688 90.688c21.952 29.248 37.376 63.744 42.816 101.632h128.832c-6.656-73.024-36.48-139.008-80.96-192.32zM608 956.224c-17.664 0-32-14.336-32-32v-192c0-17.664 14.336-32 32-32 88.256 0 160-71.808 160-160 0-17.664 14.336-32 32-32h192c17.664 0 32 14.336 32 32 0 229.376-186.624 416-416 416zM829.76 572.224c-14.144 97.984-91.84 175.68-189.76 189.696v128.832c168.64-15.232 303.296-149.952 318.592-318.592h-128.832z" />
<glyph unicode="&#xe90a;" glyph-name="funnel-chart" d="M992 128h-928v736c0 17.664-14.336 32-32 32s-32-14.336-32-32v-768c0-17.664 14.336-32 32-32h960c17.664 0 32 14.336 32 32s-14.336 32-32 32zM364.16 556.992c55.808-75.328 91.84-162.496 104.256-252.032l11.84-85.312c2.24-15.872 15.744-27.648 31.744-27.648h192c16 0 29.504 11.776 31.68 27.584l11.84 85.312c12.416 89.6 48.512 176.768 104.256 252.032l165.888 224c7.168 9.728 8.32 22.656 2.88 33.472-5.376 10.816-16.448 17.6-28.544 17.6h-768c-12.096 0-23.168-6.784-28.608-17.6s-4.288-23.744 2.88-33.472l165.888-223.936zM719.936 448h-223.808c-17.408 44.8-40.384 87.68-68.096 128h359.936c-27.648-40.32-50.688-83.2-68.032-128zM676.096 256h-136.192l-8.064 57.728c-3.264 23.68-8.256 47.104-14.4 70.272h181.184c-6.144-23.168-11.136-46.592-14.464-70.272l-8.064-57.728zM928.448 768l-94.784-128h-451.328l-94.784 128h640.896z" />
<glyph unicode="&#xe90b;" glyph-name="gantt-chart" d="M160 704h384c17.664 0 32 14.336 32 32v128c0 17.664-14.336 32-32 32h-384c-17.664 0-32-14.336-32-32v-128c0-17.664 14.336-32 32-32zM192 832h320v-64h-320v64zM384 608v-128c0-17.664 14.336-32 32-32h256c17.664 0 32 14.336 32 32v128c0 17.664-14.336 32-32 32h-256c-17.664 0-32-14.336-32-32zM448 576h192v-64h-192v64zM512 352v-128c0-17.664 14.336-32 32-32h384c17.664 0 32 14.336 32 32v128c0 17.664-14.336 32-32 32h-384c-17.664 0-32-14.336-32-32zM576 320h320v-64h-320v64zM992 128h-928v736c0 17.664-14.336 32-32 32s-32-14.336-32-32v-768c0-17.664 14.336-32 32-32h960c17.664 0 32 14.336 32 32s-14.336 32-32 32z" />
<glyph unicode="&#xe90c;" glyph-name="line-area-chart" d="M1004.224 829.568c-11.968 4.992-25.728 2.24-34.88-6.912l-173.44-173.44-170.176 113.408c-12.608 8.512-29.504 6.784-40.384-3.968l-173.44-173.44-170.176 113.408c-13.504 8.96-31.488 6.464-42.048-5.824l-135.68-158.336v329.536c0 17.664-14.336 32-32 32s-32-14.336-32-32v-768c0-17.664 14.336-32 32-32h960c17.664 0 32 14.336 32 32v704c0 12.928-7.808 24.64-19.776 29.568zM229.824 629.632l168.384-112.256c12.672-8.512 29.568-6.72 40.384 3.968l173.44 173.44 170.176-113.408c12.672-8.512 29.568-6.784 40.384 3.968l137.408 137.408v-165.504l-164.032-164.032-170.24 113.408c-12.608 8.448-29.504 6.784-40.384-3.968l-173.44-173.44-170.176 113.408c-13.504 8.96-31.488 6.464-42.048-5.824l-135.68-158.336v157.696l165.824 193.472zM64 128v52.16l165.824 193.472 168.384-112.256c12.672-8.512 29.568-6.784 40.384 3.968l173.44 173.44 170.176-113.408c12.672-8.448 29.568-6.784 40.384 3.968l137.408 137.408v-338.752h-896z" />
<glyph unicode="&#xe90d;" glyph-name="page-bottom" d="M489.344 393.344c6.272-6.208 14.464-9.344 22.656-9.344s16.384 3.136 22.656 9.344l320 320c12.48 12.48 12.48 32.768 0 45.248s-32.768 12.48-45.248 0l-297.408-297.344-297.344 297.408c-12.48 12.48-32.768 12.48-45.248 0s-12.48-32.768 0-45.248l319.936-320.064zM864 192h-704c-17.664 0-32-14.336-32-32s14.336-32 32-32h704c17.664 0 32 14.336 32 32s-14.336 32-32 32z" />
<glyph unicode="&#xe90e;" glyph-name="page-first" d="M224 832c-17.664 0-32-14.336-32-32v-704c0-17.664 14.336-32 32-32s32 14.336 32 32v704c0 17.664-14.336 32-32 32zM525.248 448l297.344 297.344c12.48 12.48 12.48 32.768 0 45.248s-32.768 12.48-45.248 0l-320-320c-12.48-12.48-12.48-32.768 0-45.248l320-320c6.272-6.272 14.464-9.344 22.656-9.344s16.384 3.136 22.656 9.344c12.48 12.48 12.48 32.768 0 45.248l-297.408 297.408z" />
<glyph unicode="&#xe90f;" glyph-name="page-last" d="M800 832c-17.664 0-32-14.336-32-32v-704c0-17.664 14.336-32 32-32s32 14.336 32 32v704c0 17.664-14.336 32-32 32zM246.656 790.656c-12.48 12.48-32.768 12.48-45.248 0s-12.48-32.768 0-45.248l297.344-297.408-297.344-297.344c-12.48-12.48-12.48-32.768 0-45.248 6.208-6.272 14.4-9.408 22.592-9.408s16.384 3.136 22.656 9.344l320 320c12.48 12.48 12.48 32.768 0 45.248l-320 320.064z" />
<glyph unicode="&#xe910;" glyph-name="page-top" d="M534.656 502.656c-12.48 12.48-32.768 12.48-45.248 0l-320-320c-12.48-12.48-12.48-32.768 0-45.248s32.768-12.48 45.248 0l297.344 297.344 297.344-297.344c6.272-6.272 14.464-9.408 22.656-9.408s16.384 3.136 22.656 9.344c12.48 12.48 12.48 32.768 0 45.248l-320 320.064zM864 768h-704c-17.664 0-32-14.336-32-32s14.336-32 32-32h704c17.664 0 32 14.336 32 32s-14.336 32-32 32z" />
<glyph unicode="&#xe911;" glyph-name="polar-chart" d="M992 448h-161.6c-16.64 249.344-224.512 447.552-478.336 448-7.040-0.448-16.64-3.328-22.656-9.344s-9.408-14.144-9.408-22.656v-97.536c-179.008-15.744-320-166.784-320-350.464 0-194.112 157.376-352 350.784-352 83.84 0 162.368 30.784 225.6 84.608l205.312-203.392c6.336-6.144 14.464-9.216 22.592-9.216s16.256 3.072 22.528 9.28c127.168 125.696 197.184 292.864 197.184 470.72 0 17.664-14.336 32-32 32zM384 830.72c203.904-15.936 367.168-179.136 382.784-382.72h-382.784v382.72zM350.784 128c-158.144 0-286.784 129.216-286.784 288 0 148.224 112.512 269.184 256 284.864v-284.864c0-8.896 3.648-16.896 9.472-22.72v-0.064l201.472-199.552c-51.008-41.792-113.472-65.664-180.16-65.664zM803.776 13.568l-374.016 370.432h529.408c-7.296-138.176-61.632-267.712-155.392-370.432z" />
<glyph unicode="&#xe912;" glyph-name="radar-chart" d="M960 314.112v267.776c37.184 13.248 64 48.448 64 90.112 0 52.928-43.072 96-96 96-25.792 0-49.152-10.368-66.432-27.008l-222.72 111.36c0.448 3.904 1.152 7.68 1.152 11.648 0 52.928-43.072 96-96 96s-96-43.072-96-96c0-3.584 0.704-7.040 1.088-10.496l-226.112-109.632c-16.896 14.848-38.784 24.128-62.976 24.128-52.928 0-96-43.072-96-96s43.072-96 96-96c26.176 0 49.856 10.56 67.2 27.584l222.016-111.744c-0.512-3.904-1.216-7.744-1.216-11.84 0-41.664 26.816-76.864 64-90.112v-267.776c-37.184-13.248-64-48.448-64-90.112 0-52.928 43.072-96 96-96s96 43.072 96 96c0 3.968-0.704 7.744-1.152 11.648l222.72 111.36c17.28-16.64 40.64-27.008 66.432-27.008 52.928 0 96 43.072 96 96 0 41.664-26.816 76.864-64 90.112zM160 640c-17.6 0-32 14.336-32 32s14.4 32 32 32 32-14.336 32-32-14.4-32-32-32zM928 704c17.6 0 32-14.336 32-32s-14.4-32-32-32-32 14.336-32 32 14.4 32 32 32zM544 896c17.6 0 32-14.336 32-32s-14.4-32-32-32-32 14.336-32 32 14.4 32 32 32zM254.4 687.936l222.272 107.776c17.28-17.088 41.088-27.712 67.328-27.712 25.856 0 49.216 10.368 66.496 27.008l222.72-111.36c-0.512-3.84-1.216-7.68-1.216-11.648 0-41.664 26.816-76.864 64-90.112v-267.776c-37.184-13.248-64-48.448-64-90.112 0-3.968 0.704-7.744 1.152-11.648l-222.72-111.36c-9.728 9.408-21.44 16.512-34.432 21.12v267.776c37.184 13.248 64 48.448 64 90.112 0 52.928-43.072 96-96 96-25.728 0-49.024-10.304-66.24-26.816l-222.848 112.128c0.384 3.52 1.088 7.040 1.088 10.688 0 5.44-0.704 10.752-1.6 15.936zM544 448c-17.6 0-32 14.336-32 32s14.4 32 32 32 32-14.336 32-32-14.4-32-32-32zM544 0c-17.6 0-32 14.336-32 32s14.4 32 32 32 32-14.336 32-32-14.4-32-32-32zM928 192c-17.6 0-32 14.336-32 32s14.4 32 32 32 32-14.336 32-32-14.4-32-32-32z" />
<glyph unicode="&#xe913;" glyph-name="range-chart-area" d="M289.984 377.472l301.504-180.928c5.12-3.072 10.816-4.544 16.512-4.544 6.208 0 12.352 1.792 17.728 5.376l174.272 116.16 174.272-116.16c9.856-6.528 22.528-7.168 32.832-1.6 10.368 5.568 16.896 16.384 16.896 28.224v256c0 10.688-5.312 20.672-14.272 26.624l-192 128c-12.672 8.448-29.568 6.784-40.384-3.968l-100.416-100.416-106.304 159.488c-5.312 8-13.952 13.184-23.488 14.080-9.6 0.704-19.008-2.432-25.792-9.216l-100.352-100.352-106.368 159.488c-5.632 8.512-15.040 13.824-25.28 14.272-9.6 0.768-19.968-4.032-26.368-12.032l-198.976-248.704v356.736c0 17.664-14.336 32-32 32s-32-14.336-32-32v-768c0-17.664 14.336-32 32-32h960c17.664 0 32 14.336 32 32s-14.336 32-32 32h-928v80l225.984 169.472zM285.632 681.856l103.744-155.584c5.312-8 13.952-13.184 23.488-14.080 9.856-1.024 19.008 2.368 25.792 9.152l100.416 100.416 106.368-159.552c5.312-8 13.952-13.184 23.488-14.080 9.856-0.96 19.008 2.496 25.792 9.216l109.44 109.44 155.84-103.936v-179.072l-142.272 94.848c-10.752 7.168-24.768 7.168-35.52 0l-175.168-116.8-302.592 181.632c-5.056 3.072-10.752 4.544-16.448 4.544-6.784 0-13.504-2.176-19.2-6.4l-204.8-153.6v116.8l221.632 277.056z" />
<glyph unicode="&#xe914;" glyph-name="range-chart-bar" d="M992 128h-928v736c0 17.664-14.336 32-32 32s-32-14.336-32-32v-768c0-17.664 14.336-32 32-32h960c17.664 0 32 14.336 32 32s-14.336 32-32 32zM992 832h-192c-17.664 0-32-14.336-32-32v-320c0-17.664 14.336-32 32-32h192c17.664 0 32 14.336 32 32v320c0 17.664-14.336 32-32 32zM960 512h-128v256h128v-256zM160 320h192c17.664 0 32 14.336 32 32v320c0 17.664-14.336 32-32 32h-192c-17.664 0-32-14.336-32-32v-320c0-17.664 14.336-32 32-32zM192 640h128v-256h-128v256zM480 192h192c17.664 0 32 14.336 32 32v320c0 17.664-14.336 32-32 32h-192c-17.664 0-32-14.336-32-32v-320c0-17.664 14.336-32 32-32zM512 512h128v-256h-128v256z" />
<glyph unicode="&#xe915;" glyph-name="scatter-chart" d="M992 128h-928v736c0 17.664-14.336 32-32 32s-32-14.336-32-32v-768c0-17.664 14.336-32 32-32h960c17.664 0 32 14.336 32 32s-14.336 32-32 32zM928 448c52.928 0 96 43.072 96 96s-43.072 96-96 96-96-43.072-96-96 43.072-96 96-96zM928 576c17.664 0 32-14.336 32-32s-14.336-32-32-32-32 14.336-32 32 14.336 32 32 32zM672 704c52.928 0 96 43.072 96 96s-43.072 96-96 96-96-43.072-96-96 43.072-96 96-96zM672 832c17.664 0 32-14.336 32-32s-14.336-32-32-32-32 14.336-32 32 14.336 32 32 32zM416 512c52.928 0 96 43.072 96 96s-43.072 96-96 96-96-43.072-96-96 43.072-96 96-96zM416 640c17.664 0 32-14.336 32-32s-14.336-32-32-32-32 14.336-32 32 14.336 32 32 32zM224 256c52.928 0 96 43.072 96 96s-43.072 96-96 96-96-43.072-96-96 43.072-96 96-96zM224 384c17.664 0 32-14.336 32-32s-14.336-32-32-32-32 14.336-32 32 14.336 32 32 32z" />
<glyph unicode="&#xe916;" glyph-name="stock-chart" d="M992 64h-960c-17.664 0-32 14.336-32 32v768c0 17.664 14.336 32 32 32s32-14.336 32-32v-736h928c17.664 0 32-14.336 32-32s-14.336-32-32-32zM352 640h-32v96c0 17.664-14.336 32-32 32s-32-14.336-32-32v-96h-32c-17.664 0-32-14.336-32-32v-256c0-17.664 14.336-32 32-32h32v-96c0-17.664 14.336-32 32-32s32 14.336 32 32v96h32c17.664 0 32 14.336 32 32v256c0 17.664-14.336 32-32 32zM320 384h-64v192h64v-192zM992 640h-32v96c0 17.664-14.336 32-32 32s-32-14.336-32-32v-96h-32c-17.664 0-32-14.336-32-32v-256c0-17.664 14.336-32 32-32h32v-96c0-17.664 14.336-32 32-32s32 14.336 32 32v96h32c17.664 0 32 14.336 32 32v256c0 17.664-14.336 32-32 32zM960 384h-64v192h64v-192zM672 768h-32v96c0 17.664-14.336 32-32 32s-32-14.336-32-32v-96h-32c-17.664 0-32-14.336-32-32v-256c0-17.664 14.336-32 32-32h32v-96c0-17.664 14.336-32 32-32s32 14.336 32 32v96h32c17.664 0 32 14.336 32 32v256c0 17.664-14.336 32-32 32zM640 512h-64v192h64v-192z" />
<glyph unicode="&#xe917;" glyph-name="x-axis" d="M928 128c-17.664 0-32-14.336-32-32v-96h-768v96c0 17.664-14.336 32-32 32s-32-14.336-32-32v-128c0-17.664 14.336-32 32-32h832c17.664 0 32 14.336 32 32v128c0 17.664-14.336 32-32 32zM331.52 199.424c5.952-4.992 13.248-7.424 20.48-7.424 9.152 0 18.24 3.904 24.576 11.52l135.424 162.496 135.424-162.496c6.336-7.616 15.424-11.52 24.576-11.52 7.232 0 14.528 2.432 20.48 7.424 13.568 11.328 15.36 31.488 4.032 45.12l-142.848 171.456 142.912 171.52c11.328 13.568 9.472 33.792-4.032 45.12-13.504 11.136-33.664 9.472-45.056-4.096l-135.488-162.56-135.424 162.496c-11.392 13.696-31.552 15.36-45.056 4.096-13.568-11.264-15.424-31.488-4.096-45.056l142.912-171.52-142.912-171.52c-11.328-13.568-9.472-33.792 4.096-45.056z" />
<glyph unicode="&#xe918;" glyph-name="y-axis" d="M160 768c17.664 0 32 14.336 32 32s-14.336 32-32 32h-128c-17.664 0-32-14.336-32-32v-768c0-17.664 14.336-32 32-32h128c17.664 0 32 14.336 32 32s-14.336 32-32 32h-96v704h96zM692.48 632.576c-13.568 11.136-33.664 9.472-45.056-4.096l-135.424-162.496-135.424 162.496c-11.328 13.696-31.552 15.36-45.056 4.096-13.568-11.264-15.424-31.488-4.096-45.056l152.576-183.104v-180.416c0-17.664 14.336-32 32-32s32 14.336 32 32v180.416l152.576 183.104c11.328 13.568 9.472 33.792-4.096 45.056z" />
<glyph unicode="&#xe919;" glyph-name="y1-axis" d="M864 64h-32v224c0 17.664-14.336 32-32 32h-64c-17.664 0-32-14.336-32-32s14.336-32 32-32h32v-192h-32c-17.664 0-32-14.336-32-32s14.336-32 32-32h128c17.664 0 32 14.336 32 32s-14.336 32-32 32zM160 768c17.664 0 32 14.336 32 32s-14.336 32-32 32h-128c-17.664 0-32-14.336-32-32v-768c0-17.664 14.336-32 32-32h128c17.664 0 32 14.336 32 32s-14.336 32-32 32h-96v704h96zM647.424 628.48l-135.424-162.496-135.424 162.496c-11.264 13.568-31.424 15.424-45.056 4.096-13.568-11.264-15.424-31.488-4.096-45.056l152.576-183.104v-180.416c0-17.664 14.336-32 32-32s32 14.336 32 32v180.416l152.576 183.104c11.328 13.568 9.472 33.792-4.096 45.12-13.632 11.264-33.792 9.408-45.056-4.16z" />
<glyph unicode="&#xe91a;" glyph-name="y2-axis" d="M832 128c35.264 0 64 28.736 64 64v64c0 35.264-28.736 64-64 64h-96c-17.664 0-32-14.336-32-32s14.336-32 32-32h96v-64h-64c-35.264 0-64-28.736-64-64v-96c0-17.664 14.336-32 32-32h128c17.664 0 32 14.336 32 32s-14.336 32-32 32h-96v64h64zM160 768c17.664 0 32 14.336 32 32s-14.336 32-32 32h-128c-17.664 0-32-14.336-32-32v-768c0-17.664 14.336-32 32-32h128c17.664 0 32 14.336 32 32s-14.336 32-32 32h-96v704h96zM647.424 628.48l-135.424-162.496-135.424 162.496c-11.264 13.568-31.424 15.424-45.056 4.096-13.568-11.264-15.424-31.488-4.096-45.056l152.576-183.104v-180.416c0-17.664 14.336-32 32-32s32 14.336 32 32v180.416l152.576 183.104c11.328 13.568 9.472 33.792-4.096 45.12-13.632 11.264-33.792 9.408-45.056-4.16z" />
<glyph unicode="&#xe91b;" glyph-name="user-arrow-down" d="M982.656 150.656c-12.48 12.48-32.768 12.48-45.248 0l-105.408-105.408v306.752c0 17.664-14.336 32-32 32s-32-14.336-32-32v-306.752l-105.344 105.344c-12.48 12.48-32.768 12.48-45.248 0s-12.48-32.768 0-45.248l160-160c6.208-6.208 14.4-9.344 22.592-9.344s16.384 3.136 22.656 9.344l160 160c12.48 12.544 12.48 32.768 0 45.312zM640 672c0 158.784-114.816 288-256 288s-256-129.216-256-288c0-106.112 51.84-197.952 128-247.936v-8.064c0-30.464-16.576-58.24-41.216-69.184l-135.488-59.968c-48.192-21.312-79.296-71.424-79.296-127.616v-63.232c0-17.664 14.336-32 32-32s32 14.336 32 32v63.232c0 30.464 16.576 58.24 41.216 69.184l135.488 59.968c42.048 18.624 69.696 59.52 76.416 106.88 21.44-6.592 43.584-11.264 66.88-11.264s45.376 4.672 66.816 11.2c2.816-19.584 8.128-38.656 18.432-55.36 6.016-9.856 16.512-15.232 27.264-15.232 5.696 0 11.52 1.536 16.704 4.736 15.104 9.216 19.84 28.928 10.56 43.968-7.744 12.544-11.776 27.328-11.776 42.688v8.064c76.16 49.984 128 141.824 128 247.936zM192 672c0 123.52 86.144 224 192 224s192-100.48 192-224v0c0-123.52-86.144-224-192-224s-192 100.48-192 224z" />
<glyph unicode="&#xe91c;" glyph-name="user-arrow-up" d="M982.656 214.656l-160 160c-12.48 12.48-32.768 12.48-45.248 0l-160-160c-12.48-12.48-12.48-32.768 0-45.248s32.768-12.48 45.248 0l105.344 105.344v-306.752c0-17.664 14.336-32 32-32s32 14.336 32 32v306.752l105.344-105.344c6.272-6.272 14.464-9.408 22.656-9.408s16.384 3.136 22.656 9.344c12.48 12.544 12.48 32.768 0 45.312zM640 672c0 158.784-114.816 288-256 288s-256-129.216-256-288c0-106.112 51.84-197.952 128-247.936v-8.064c0-30.464-16.576-58.24-41.28-69.184l-135.36-59.904c-48.256-21.312-79.36-71.424-79.36-127.68v-63.232c0-17.664 14.336-32 32-32s32 14.336 32 32v63.232c0 30.464 16.576 58.24 41.28 69.184l135.36 59.968c42.112 18.56 69.76 59.52 76.48 106.88 21.44-6.592 43.584-11.264 66.88-11.264s45.376 4.672 66.816 11.2c2.816-19.648 8.192-38.72 18.432-55.36 6.080-9.792 16.576-15.232 27.264-15.232 5.76 0 11.584 1.536 16.768 4.736 15.040 9.28 19.776 28.992 10.496 44.032-7.744 12.48-11.776 27.2-11.776 42.624v8.064c76.16 49.984 128 141.824 128 247.936zM192 672c0 123.52 86.144 224 192 224s192-100.48 192-224v0c0-123.52-86.144-224-192-224s-192 100.48-192 224z" />
<glyph unicode="&#xe91d;" glyph-name="user-chart" d="M608 192c-17.664 0-32-14.336-32-32v-192c0-17.664 14.336-32 32-32s32 14.336 32 32v192c0 17.664-14.336 32-32 32zM736 384c-17.664 0-32-14.336-32-32v-384c0-17.664 14.336-32 32-32s32 14.336 32 32v384c0 17.664-14.336 32-32 32zM864 256c-17.664 0-32-14.336-32-32v-256c0-17.664 14.336-32 32-32s32 14.336 32 32v256c0 17.664-14.336 32-32 32zM992 192c-17.664 0-32-14.336-32-32v-192c0-17.664 14.336-32 32-32s32 14.336 32 32v192c0 17.664-14.336 32-32 32zM384 960c-141.184 0-256-129.216-256-288 0-106.112 51.84-197.952 128-247.936v-8.064c0-30.464-16.576-58.24-41.28-69.184l-135.36-59.904c-48.256-21.312-79.36-71.424-79.36-127.68v-63.232c0-17.664 14.336-32 32-32s32 14.336 32 32v63.232c0 30.464 16.576 58.24 41.28 69.184l135.36 59.968c42.112 18.56 69.76 59.52 76.48 106.88 21.44-6.592 43.584-11.264 66.88-11.264s45.376 4.672 66.816 11.2c2.816-19.648 8.192-38.72 18.432-55.36 6.080-9.792 16.576-15.232 27.264-15.232 5.76 0 11.584 1.536 16.768 4.736 15.040 9.28 19.776 28.992 10.496 44.032-7.744 12.48-11.776 27.2-11.776 42.624v8.064c76.16 49.984 128 141.824 128 248 0 158.72-114.816 287.936-256 287.936zM576 672c0-123.52-86.144-224-192-224s-192 100.48-192 224c0 123.52 86.144 224 192 224s192-100.48 192-224v0z" />
<glyph unicode="&#xe91e;" glyph-name="user-circle-o" d="M512 960c-282.304 0-512-229.696-512-512s229.696-512 512-512 512 229.696 512 512-229.696 512-512 512zM256 80.896v50.88c0 41.344 26.368 77.952 65.6 91.072l60.736 20.224c39.168 13.056 65.408 49.472 65.6 90.688 20.16-8.384 41.472-13.76 64.064-13.76s43.904 5.376 64.064 13.76c0.128-41.216 26.432-77.696 65.6-90.752l60.736-20.16c39.232-13.12 65.6-49.728 65.6-91.072v-50.88c-72.64-50.816-160.832-80.896-256-80.896s-183.36 30.080-256 80.896zM512 384c-70.592 0-128 71.808-128 160s57.408 160 128 160 128-71.808 128-160-57.408-160-128-160zM831.744 134.784c-1.28 67.712-44.672 127.232-109.12 148.736l-60.736 20.16c-13.056 4.416-21.888 16.64-21.888 30.464v44.096c38.976 41.024 64 99.776 64 165.76 0 123.52-86.144 224-192 224s-192-100.48-192-224c0-65.92 25.024-124.672 64-165.76v-44.16c0-13.76-8.832-25.984-21.888-30.336l-60.736-20.224c-64.448-21.504-107.84-81.024-109.12-148.736-79.232 80.896-128.256 191.36-128.256 313.216 0 247.040 201.024 448 448 448s448-200.96 448-448c0-121.856-49.024-232.32-128.256-313.216z" />
<glyph unicode="&#xe91f;" glyph-name="cloud-wrench" d="M832 578.048c0 0.064 0 0.128 0 0.192 0 106.432-86.144 193.024-192 193.024-26.688 0-52.736-5.632-76.928-16.512-33.472 83.904-114.88 141.248-207.616 141.248-123.52 0-224-101.056-224-225.216 0-15.488 1.792-31.104 5.312-46.784-81.984-34.816-136.768-115.712-136.768-206.784 0-124.16 100.48-225.216 224-225.216 17.664 0 32 14.336 32 32s-14.336 32-32 32c-88.192 0-160 72.32-160 161.216 0 73.152 49.408 137.088 120.128 155.456 8.768 2.24 16.128 8.128 20.288 16.128 4.224 8.064 4.8 17.472 1.664 25.92-7.168 19.328-10.624 37.632-10.624 56.064 0 88.896 71.744 161.216 160 161.216 76.864 0 142.912-55.36 156.992-131.584 2.048-10.944 9.536-20.032 19.968-24 10.496-3.968 22.144-2.368 30.912 4.416 22.72 17.28 49.216 26.432 76.672 26.432 70.592 0 128-57.856 128-129.024 0-9.088-1.216-18.752-3.776-29.504-2.56-10.816 0.704-22.144 8.576-29.952s19.072-11.008 29.952-8.512c10.752 2.56 20.288 3.776 29.248 3.776 70.592 0 128-57.856 128-129.024 0-61.12-43.072-114.304-102.4-126.464-17.344-3.52-28.48-20.416-24.96-37.76s20.608-28.352 37.76-24.96c89.024 18.176 153.6 97.728 153.6 189.12 0 106.496-86.144 193.088-192 193.088zM737.6 327.168l-91.968-91.84c-6.272-6.272-16.384-6.272-22.656 0l-67.968 67.84c-6.272 6.272-6.272 16.384 0 22.656l91.968 91.84c8.896 8.896 4.672 24.448-7.616 27.072-26.176 5.44-54.656 4.544-84.544-6.080-45.248-16.128-81.792-52.672-97.984-97.856-13.056-36.48-11.456-70.976-1.408-101.632 1.92-5.76 0.64-12.096-3.712-16.384l-174.976-174.784c-24.128-24.128-28.416-63.68-6.208-89.536 12.864-14.976 30.784-22.464 48.768-22.464 16.384 0 32.832 6.272 45.312 18.752l177.792 177.536c4.288 4.288 10.624 5.568 16.384 3.648 30.72-10.048 65.28-11.648 101.824 1.408 45.248 16.128 81.856 52.672 97.984 97.856 10.624 29.76 11.52 58.24 6.080 84.352-2.56 12.288-18.176 16.448-27.072 7.616z" />
<glyph unicode="&#xe920;" glyph-name="cloud-x" d="M702.4 318.464c-12.48 12.48-32.768 12.48-45.248 0l-113.152-113.152-113.152 113.152c-12.48 12.48-32.768 12.48-45.248 0s-12.48-32.768 0-45.248l113.152-113.152-113.152-113.152c-12.48-12.48-12.48-32.768 0-45.248 6.272-6.272 14.464-9.344 22.656-9.344s16.384 3.136 22.656 9.344l113.088 113.152 113.152-113.152c6.272-6.272 14.464-9.344 22.656-9.344s16.384 3.136 22.656 9.344c12.48 12.48 12.48 32.768 0 45.248l-113.152 113.152 113.152 113.152c12.416 12.48 12.416 32.768-0.064 45.248zM832 578.048c0 0.064 0 0.128 0 0.192 0 106.432-86.144 193.024-192 193.024-26.688 0-52.736-5.632-76.928-16.512-33.472 83.904-114.88 141.248-207.616 141.248-123.52 0-224-101.056-224-225.216 0-15.488 1.792-31.104 5.312-46.784-81.984-34.816-136.768-115.712-136.768-206.784 0-124.16 100.48-225.216 224-225.216 17.664 0 32 14.336 32 32s-14.336 32-32 32c-88.192 0-160 72.32-160 161.216 0 73.152 49.408 137.088 120.128 155.456 8.768 2.24 16.128 8.128 20.288 16.128 4.224 8.064 4.8 17.472 1.664 25.92-7.168 19.328-10.624 37.632-10.624 56.064 0 88.896 71.744 161.216 160 161.216 76.864 0 142.912-55.36 156.992-131.584 2.048-10.944 9.536-20.032 19.968-24s22.080-2.368 30.912 4.416c22.72 17.28 49.216 26.432 76.672 26.432 70.592 0 128-57.856 128-129.024 0-9.088-1.216-18.752-3.776-29.504-2.56-10.816 0.704-22.144 8.576-29.952s19.072-11.008 29.952-8.512c10.752 2.56 20.288 3.776 29.248 3.776 70.592 0 128-57.856 128-129.024 0-61.12-43.072-114.304-102.4-126.464-17.344-3.52-28.48-20.416-24.96-37.76s20.608-28.352 37.76-24.96c89.024 18.176 153.6 97.728 153.6 189.12 0 106.496-86.144 193.088-192 193.088z" />
<glyph unicode="&#xe921;" glyph-name="user-check" d="M1014.656 310.656c-12.48 12.48-32.768 12.48-45.248 0l-233.408-233.408-105.344 105.344c-12.48 12.48-32.768 12.48-45.248 0s-12.48-32.768 0-45.248l128-128c6.208-6.208 14.4-9.344 22.592-9.344s16.384 3.136 22.656 9.344l256 256c12.48 12.544 12.48 32.768 0 45.312zM640 672c0 158.784-114.816 288-256 288s-256-129.216-256-288c0-106.112 51.84-197.952 128-247.936v-8.064c0-30.464-16.576-58.24-41.28-69.184l-135.36-59.904c-48.256-21.312-79.36-71.424-79.36-127.68v-63.232c0-17.664 14.336-32 32-32s32 14.336 32 32v63.232c0 30.464 16.576 58.24 41.28 69.184l135.36 59.968c42.112 18.56 69.76 59.52 76.48 106.88 21.44-6.592 43.584-11.264 66.88-11.264s45.376 4.672 66.816 11.2c2.816-19.648 8.192-38.72 18.432-55.36 6.080-9.792 16.576-15.232 27.264-15.232 5.76 0 11.584 1.536 16.768 4.736 15.040 9.28 19.776 28.992 10.496 44.032-7.744 12.48-11.776 27.2-11.776 42.624v8.064c76.16 49.984 128 141.824 128 247.936zM192 672c0 123.52 86.144 224 192 224s192-100.48 192-224v0c0-123.52-86.144-224-192-224s-192 100.48-192 224z" />
<glyph unicode="&#xe922;" glyph-name="user-clock" d="M800 384c-123.52 0-224-100.48-224-224s100.48-224 224-224 224 100.48 224 224-100.48 224-224 224zM800 0c-88.256 0-160 71.808-160 160s71.744 160 160 160 160-71.808 160-160-71.744-160-160-160zM832 173.248v50.752c0 17.664-14.336 32-32 32s-32-14.336-32-32v-64c0-8.512 3.392-16.64 9.344-22.656l64-64c6.272-6.208 14.464-9.344 22.656-9.344s16.384 3.136 22.656 9.344c12.48 12.48 12.48 32.768 0 45.248l-54.656 54.656zM640 672c0 158.784-114.816 288-256 288s-256-129.216-256-288c0-106.112 51.84-197.952 128-247.936v-8.064c0-30.464-16.576-58.24-41.28-69.184l-135.36-59.904c-48.256-21.312-79.36-71.424-79.36-127.68v-63.232c0-17.664 14.336-32 32-32s32 14.336 32 32v63.232c0 30.464 16.576 58.24 41.28 69.184l135.36 59.968c42.112 18.56 69.76 59.52 76.48 106.88 21.44-6.592 43.584-11.264 66.88-11.264s45.376 4.672 66.816 11.2c2.816-19.648 8.192-38.72 18.432-55.36 6.080-9.792 16.576-15.232 27.264-15.232 5.76 0 11.584 1.536 16.768 4.736 15.040 9.28 19.776 28.992 10.496 44.032-7.744 12.48-11.776 27.2-11.776 42.624v8.064c76.16 49.984 128 141.824 128 247.936zM192 672c0 123.52 86.144 224 192 224s192-100.48 192-224v0c0-123.52-86.144-224-192-224s-192 100.48-192 224z" />
<glyph unicode="&#xe923;" glyph-name="user-graduate" d="M723.648 410.88c28.608 38.272 44.48 84.224 44.48 133.12l-1.024 122.304 173.184 72.128c11.904 4.992 19.712 16.64 19.712 29.568s-7.808 24.576-19.712 29.504l-384 160c-7.872 3.328-16.768 3.328-24.64 0l-384-160c-11.84-4.928-19.648-16.576-19.648-29.504v-192c0-17.664 14.336-32 32-32s32 14.336 32 32v144l128.128-53.376v-111.744c0-53.312 18.56-102.72 48.256-142.72l-202.88-137.408c-23.872-23.808-37.504-56.832-37.504-90.496v-152.256c0-17.664 14.336-32 32-32s32 14.336 32 32v152.256c0 16.832 6.848 33.344 14.016 41.344l207.168 139.648c33.92-26.176 74.88-42.624 118.976-44.928 4.032-0.192 8.128-0.32 12.16-0.32 48.64 0 94.464 16.256 132.992 45.056l199.936-135.552c11.904-11.904 18.752-28.416 18.752-45.248v-152.256c0-17.664 14.336-32 32-32s32 14.336 32 32v152.256c0 33.664-13.632 66.688-42.112 94.336l-194.24 132.288zM544 893.312l300.8-125.312-300.8-125.312-300.8 125.312 300.8 125.312zM535.488 384.256c-83.456 4.352-151.36 80.896-151.36 170.624v85.056l147.52-61.504c3.968-1.6 8.192-2.432 12.352-2.432s8.384 0.832 12.288 2.496l147.072 61.248 0.768-95.808c0-44.288-17.728-85.44-49.856-115.968-32.192-30.592-74.752-46.080-118.784-43.712z" />
<glyph unicode="&#xe924;" glyph-name="user-heart" d="M996.16 353.984c-26.112 22.016-59.52 32.576-93.888 29.504-34.432-3.008-65.472-19.136-87.36-45.312l-5.952-7.168-5.952 7.104c-21.888 26.24-52.928 42.368-87.36 45.376-34.624 3.072-67.84-7.488-93.952-29.504-54.080-45.632-61.248-126.912-15.872-181.312l178.624-212.928c6.080-7.232 15.040-11.456 24.512-11.456s18.432 4.16 24.512 11.456l178.624 212.992c45.248 54.336 38.144 135.616-15.936 181.248zM962.944 213.824l-154.048-183.68-154.048 183.616c-22.848 27.392-19.264 68.352 8 91.328 11.584 9.728 26.048 14.912 41.216 14.912 1.984 0 3.904-0.064 5.888-0.256 17.344-1.472 32.96-9.536 43.904-22.656l30.528-36.352c12.096-14.464 36.8-14.464 49.024 0l30.528 36.416c10.944 13.056 26.496 21.12 43.84 22.656 17.408 1.6 34.048-3.712 47.104-14.656 27.264-23.040 30.848-64 8.064-91.328zM640 672c0 158.784-114.816 288-256 288s-256-129.216-256-288c0-106.112 51.84-197.952 128-247.936v-8.064c0-30.464-16.576-58.24-41.216-69.184l-135.488-59.968c-48.192-21.312-79.296-71.424-79.296-127.616v-63.232c0-17.664 14.336-32 32-32s32 14.336 32 32v63.232c0 30.464 16.576 58.24 41.216 69.184l135.488 59.968c42.048 18.624 69.696 59.52 76.416 106.88 21.44-6.592 43.584-11.264 66.88-11.264s45.376 4.672 66.816 11.2c2.816-19.584 8.128-38.656 18.432-55.36 6.016-9.856 16.512-15.232 27.264-15.232 5.696 0 11.52 1.536 16.704 4.736 15.104 9.216 19.84 28.928 10.56 43.968-7.744 12.544-11.776 27.328-11.776 42.688v8.064c76.16 49.984 128 141.824 128 247.936zM192 672c0 123.52 86.144 224 192 224s192-100.48 192-224v0c0-123.52-86.144-224-192-224s-192 100.48-192 224z" />
<glyph unicode="&#xe925;" glyph-name="user-lock" d="M992 192h-32v64c0 70.592-57.408 128-128 128s-128-57.408-128-128v-64h-32c-17.664 0-32-14.336-32-32v-192c0-17.664 14.336-32 32-32h320c17.664 0 32 14.336 32 32v192c0 17.664-14.336 32-32 32zM768 256c0 35.264 28.736 64 64 64s64-28.736 64-64v-64h-128v64zM960 0h-256v128h256v-128zM640 672c0 158.784-114.816 288-256 288s-256-129.216-256-288c0-106.112 51.84-197.952 128-247.936v-8.064c0-30.464-16.576-58.24-41.216-69.184l-135.488-59.968c-48.192-21.312-79.296-71.424-79.296-127.616v-63.232c0-17.664 14.336-32 32-32s32 14.336 32 32v63.232c0 30.464 16.576 58.24 41.216 69.184l135.488 59.968c42.048 18.624 69.696 59.52 76.416 106.88 21.44-6.592 43.584-11.264 66.88-11.264s45.376 4.672 66.816 11.2c2.816-19.584 8.128-38.656 18.432-55.36 6.016-9.856 16.512-15.232 27.264-15.232 5.696 0 11.52 1.536 16.704 4.736 15.104 9.216 19.84 28.928 10.56 43.968-7.744 12.544-11.776 27.328-11.776 42.688v8.064c76.16 49.984 128 141.824 128 247.936zM192 672c0 123.52 86.144 224 192 224s192-100.48 192-224v0c0-123.52-86.144-224-192-224s-192 100.48-192 224z" />
<glyph unicode="&#xe926;" glyph-name="user-magnifying-glass" d="M1014.656-9.344l-145.28 145.28c16.768 25.28 26.624 55.488 26.624 88.064 0 88.192-71.744 160-160 160s-160-71.808-160-160 71.744-160 160-160c32.576 0 62.784 9.856 88.128 26.624l145.28-145.28c6.208-6.208 14.4-9.344 22.592-9.344s16.384 3.136 22.656 9.344c12.48 12.544 12.48 32.768 0 45.312zM640 224c0 52.928 43.072 96 96 96s96-43.072 96-96-43.072-96-96-96-96 43.072-96 96zM640 672c0 158.784-114.816 288-256 288s-256-129.216-256-288c0-106.112 51.84-197.952 128-247.936v-8.064c0-30.464-16.576-58.24-41.28-69.184l-135.36-59.904c-48.256-21.312-79.36-71.424-79.36-127.68v-63.232c0-17.664 14.336-32 32-32s32 14.336 32 32v63.232c0 30.464 16.576 58.24 41.28 69.184l135.36 59.968c42.112 18.56 69.76 59.52 76.48 106.88 21.44-6.592 43.584-11.264 66.88-11.264s45.376 4.672 66.816 11.2c2.816-19.648 8.192-38.72 18.432-55.36 6.080-9.792 16.576-15.232 27.264-15.232 5.76 0 11.584 1.536 16.768 4.736 15.040 9.28 19.776 28.992 10.496 44.032-7.744 12.48-11.776 27.2-11.776 42.624v8.064c76.16 49.984 128 141.824 128 247.936zM192 672c0 123.52 86.144 224 192 224s192-100.48 192-224v0c0-123.52-86.144-224-192-224s-192 100.48-192 224z" />
<glyph unicode="&#xe927;" glyph-name="user-edit" d="M995.904 355.84c0 0 0 0 0 0-37.504 37.376-98.368 37.44-135.744 0l-190.912-190.976c-12.864-12.8-23.488-27.904-30.848-43.648l-57.792-123.776c-8.128-17.344-5.248-36.8 7.36-49.408 8-7.872 18.496-12.032 29.504-12.032 6.656 0 13.44 1.472 19.968 4.544l123.776 57.664c15.68 7.296 30.784 17.984 43.712 30.784l190.976 191.040c18.112 18.176 28.096 42.304 28.096 67.904 0 25.664-9.984 49.728-28.096 67.904zM950.656 265.344l-190.912-190.976c-7.68-7.616-16.512-13.824-25.472-18.048l-70.912-33.088 33.088 70.912c4.224 9.088 10.432 17.856 18.048 25.408l190.976 191.040c6.272 6.272 14.464 9.344 22.656 9.344s16.384-3.072 22.656-9.344c0 0 0 0 0 0 5.888-6.080 9.216-14.080 9.216-22.656 0-8.512-3.328-16.576-9.344-22.592zM640 672c0 158.784-114.816 288-256 288s-256-129.216-256-288c0-106.112 51.84-197.952 128-247.936v-8.064c0-30.464-16.576-58.24-41.28-69.184l-135.36-59.904c-48.256-21.312-79.36-71.424-79.36-127.68v-63.232c0-17.664 14.336-32 32-32s32 14.336 32 32v63.232c0 30.464 16.576 58.24 41.28 69.184l135.36 59.968c42.112 18.56 69.76 59.52 76.48 106.88 21.44-6.592 43.584-11.264 66.88-11.264s45.376 4.672 66.816 11.2c2.816-19.648 8.192-38.72 18.432-55.36 6.080-9.792 16.576-15.232 27.264-15.232 5.76 0 11.584 1.536 16.768 4.736 15.040 9.28 19.776 28.992 10.496 44.032-7.744 12.48-11.776 27.2-11.776 42.624v8.064c76.16 49.984 128 141.824 128 247.936zM192 672c0 123.52 86.144 224 192 224s192-100.48 192-224v0c0-123.52-86.144-224-192-224s-192 100.48-192 224z" />
<glyph unicode="&#xe928;" glyph-name="user-wrench" d="M523.776 373.312c-7.744 12.544-11.776 27.328-11.776 42.688v8.064c76.16 49.984 128 141.824 128 247.936 0 158.784-114.816 288-256 288s-256-129.216-256-288c0-106.112 51.84-197.952 128-247.936v-8.064c0-30.464-16.576-58.24-41.216-69.184l-135.488-59.968c-48.192-21.312-79.296-71.424-79.296-127.616v-63.232c0-17.664 14.336-32 32-32s32 14.336 32 32v63.232c0 30.464 16.576 58.24 41.216 69.184l135.488 59.968c42.048 18.624 69.696 59.52 76.416 106.88 21.44-6.592 43.584-11.264 66.88-11.264s45.376 4.672 66.816 11.2c2.816-19.584 8.128-38.656 18.432-55.36 6.016-9.856 16.512-15.232 27.264-15.232 5.696 0 11.52 1.536 16.704 4.736 15.104 9.216 19.84 28.928 10.56 43.968zM384 448c-105.856 0-192 100.48-192 224s86.144 224 192 224 192-100.48 192-224v0c0-123.52-86.144-224-192-224zM1021.504 319.552c-2.56 12.288-18.176 16.448-27.072 7.616l-91.84-91.84c-6.272-6.272-16.384-6.272-22.656 0l-67.904 67.84c-6.272 6.272-6.272 16.384 0 22.656l91.84 91.84c8.896 8.896 4.672 24.448-7.616 27.072-26.112 5.504-54.592 4.608-84.352-6.016-45.184-16.128-81.728-52.672-97.856-97.856-12.992-36.48-11.456-70.976-1.408-101.632 1.92-5.76 0.64-12.096-3.648-16.384l-174.656-174.848c-24.128-24.128-28.416-63.68-6.208-89.536 12.864-14.976 30.784-22.464 48.704-22.464 16.384 0 32.768 6.272 45.248 18.752l177.536 177.536c4.288 4.288 10.624 5.568 16.384 3.648 30.656-10.048 65.152-11.648 101.632 1.408 45.184 16.128 81.728 52.672 97.856 97.856 10.624 29.76 11.52 58.24 6.016 84.352z" />
<glyph unicode="&#xe929;" glyph-name="user-ban" d="M800 384c-123.52 0-224-100.48-224-224s100.48-224 224-224 224 100.48 224 224-100.48 224-224 224zM800 320c32.576 0 62.784-9.856 88.128-26.624l-221.44-221.44c-16.832 25.28-26.688 55.488-26.688 88.064 0 88.192 71.744 160 160 160zM800 0c-32.576 0-62.784 9.856-88.128 26.624l221.44 221.44c16.832-25.28 26.688-55.488 26.688-88.064 0-88.192-71.744-160-160-160zM640 672c0 158.784-114.816 288-256 288s-256-129.216-256-288c0-106.112 51.84-197.952 128-247.936v-8.064c0-30.464-16.576-58.24-41.28-69.184l-135.36-59.904c-48.256-21.312-79.36-71.424-79.36-127.68v-63.232c0-17.664 14.336-32 32-32s32 14.336 32 32v63.232c0 30.464 16.576 58.24 41.28 69.184l135.36 59.968c42.112 18.56 69.76 59.52 76.48 106.88 21.44-6.592 43.584-11.264 66.88-11.264s45.376 4.672 66.816 11.2c2.816-19.648 8.192-38.72 18.432-55.36 6.080-9.792 16.576-15.232 27.264-15.232 5.76 0 11.584 1.536 16.768 4.736 15.040 9.28 19.776 28.992 10.496 44.032-7.744 12.48-11.776 27.2-11.776 42.624v8.064c76.16 49.984 128 141.824 128 247.936zM192 672c0 123.52 86.144 224 192 224s192-100.48 192-224v0c0-123.52-86.144-224-192-224s-192 100.48-192 224z" />
<glyph unicode="&#xe92a;" glyph-name="user-cursor" d="M928 0h-32c-35.264 0-64 28.736-64 64v64h32c17.664 0 32 14.336 32 32s-14.336 32-32 32h-32v64c0 35.264 28.736 64 64 64h32c17.664 0 32 14.336 32 32s-14.336 32-32 32h-32c-38.208 0-72.512-16.832-96-43.456-23.488 26.624-57.792 43.456-96 43.456h-32c-17.664 0-32-14.336-32-32s14.336-32 32-32h32c35.264 0 64-28.736 64-64v-64h-32c-17.664 0-32-14.336-32-32s14.336-32 32-32h32v-64c0-35.264-28.736-64-64-64h-32c-17.664 0-32-14.336-32-32s14.336-32 32-32h32c38.208 0 72.512 16.832 96 43.456 23.488-26.624 57.792-43.456 96-43.456h32c17.664 0 32 14.336 32 32s-14.336 32-32 32zM640 672c0 158.784-114.816 288-256 288s-256-129.216-256-288c0-106.112 51.84-197.952 128-247.936v-8.064c0-30.464-16.576-58.24-41.216-69.184l-135.488-59.968c-48.192-21.312-79.296-71.424-79.296-127.616v-63.232c0-17.664 14.336-32 32-32s32 14.336 32 32v63.232c0 30.464 16.576 58.24 41.216 69.184l135.488 59.968c42.048 18.624 69.696 59.52 76.416 106.88 21.44-6.592 43.584-11.264 66.88-11.264s45.376 4.672 66.816 11.2c2.816-19.584 8.128-38.656 18.432-55.36 6.016-9.856 16.512-15.232 27.264-15.232 5.696 0 11.52 1.536 16.704 4.736 15.104 9.216 19.84 28.928 10.56 43.968-7.744 12.544-11.776 27.328-11.776 42.688v8.064c76.16 49.984 128 141.824 128 247.936zM192 672c0 123.52 86.144 224 192 224s192-100.48 192-224v0c0-123.52-86.144-224-192-224s-192 100.48-192 224z" />
<glyph unicode="&#xe92b;" glyph-name="cart-arrow-up" d="M1002.112 574.336c-16.896 5.568-34.88-3.456-40.448-20.224l-117.888-353.664c-1.216-3.648-7.936-8.448-11.776-8.448h-544c-2.88 0-8 3.968-8.704 6.784l-112.448 449.92c-7.936 31.488-38.336 55.296-70.848 55.296h-64c-17.664 0-32-14.336-32-32s14.336-32 32-32h64c2.88 0 8-3.968 8.704-6.784l112.448-449.92c7.936-31.488 38.336-55.296 70.848-55.296h544c31.424 0 62.592 22.464 72.448 52.224l117.888 353.664c5.632 16.768-3.456 34.88-20.224 40.448zM384 0c0-35.346-28.654-64-64-64s-64 28.654-64 64c0 35.346 28.654 64 64 64s64-28.654 64-64zM832 0c0-35.346-28.654-64-64-64s-64 28.654-64 64c0 35.346 28.654 64 64 64s64-28.654 64-64zM374.656 713.344l137.344 137.408v-434.752c0-17.664 14.336-32 32-32s32 14.336 32 32v434.752l137.344-137.344c6.272-6.272 14.464-9.408 22.656-9.408s16.384 3.136 22.656 9.344c12.48 12.48 12.48 32.768 0 45.248l-192 192c-2.944 2.944-6.528 5.312-10.432 6.976-7.808 3.264-16.64 3.264-24.448 0-3.904-1.664-7.488-4.032-10.432-6.976l-192-191.936c-12.48-12.48-12.48-32.768 0-45.248s32.768-12.544 45.312-0.064z" />
<glyph unicode="&#xe92c;" glyph-name="cart-check" d="M1002.112 574.336c-16.896 5.632-34.88-3.456-40.448-20.224l-117.888-353.664c-1.216-3.648-7.936-8.448-11.776-8.448h-544c-2.88 0-8 3.968-8.704 6.784l-112.448 449.92c-7.936 31.488-38.336 55.296-70.848 55.296h-64c-17.664 0-32-14.336-32-32s14.336-32 32-32h64c2.88 0 8-3.968 8.704-6.784l112.448-449.92c7.936-31.488 38.336-55.296 70.848-55.296h544c31.424 0 62.592 22.464 72.448 52.224l117.888 353.664c5.632 16.768-3.456 34.88-20.224 40.448zM384 0c0-35.346-28.654-64-64-64s-64 28.654-64 64c0 35.346 28.654 64 64 64s64-28.654 64-64zM832 0c0-35.346-28.654-64-64-64s-64 28.654-64 64c0 35.346 28.654 64 64 64s64-28.654 64-64zM521.344 457.344c6.272-6.208 14.464-9.344 22.656-9.344s16.384 3.136 22.656 9.344l256 256c12.48 12.48 12.48 32.768 0 45.248s-32.768 12.48-45.248 0l-233.408-233.344-105.344 105.408c-12.48 12.48-32.768 12.48-45.248 0s-12.48-32.768 0-45.248l127.936-128.064z" />
<glyph unicode="&#xe92d;" glyph-name="cart-empty" d="M1002.112 574.336c-16.896 5.568-34.88-3.456-40.448-20.224l-117.888-353.664c-1.216-3.648-7.936-8.448-11.776-8.448h-544c-2.88 0-8 3.968-8.704 6.784l-112.448 449.92c-7.936 31.488-38.336 55.296-70.848 55.296h-64c-17.664 0-32-14.336-32-32s14.336-32 32-32h64c2.88 0 8-3.968 8.704-6.784l112.448-449.92c7.936-31.488 38.336-55.296 70.848-55.296h544c31.424 0 62.592 22.464 72.448 52.224l117.888 353.664c5.632 16.768-3.456 34.88-20.224 40.448zM384 0c0-35.346-28.654-64-64-64s-64 28.654-64 64c0 35.346 28.654 64 64 64s64-28.654 64-64zM832 0c0-35.346-28.654-64-64-64s-64 28.654-64 64c0 35.346 28.654 64 64 64s64-28.654 64-64z" />
<glyph unicode="&#xe92e;" glyph-name="cart-full" d="M1005.568 553.792c-10.112 14.144-26.752 22.208-45.568 22.208h-114.752l-246.592 246.656c-12.48 12.48-32.768 12.48-45.248 0l-246.656-246.656h-121.728l-18.24 72.704c-7.872 31.488-38.272 55.296-70.784 55.296h-64c-17.664 0-32-14.336-32-32s14.336-32 32-32h64c2.944 0 8-3.904 8.704-6.784l112.512-449.92c7.872-31.488 38.272-55.296 70.784-55.296h544c31.36 0 62.592 22.464 72.512 52.224l107.776 323.328c5.888 17.792 3.456 36.16-6.72 50.24zM576 754.752l178.752-178.752h-357.504l178.752 178.752zM843.776 200.448c-1.216-3.648-7.872-8.448-11.776-8.448h-544c-2.944 0-8 3.904-8.704 6.784l-78.272 313.216h746.56l-103.808-311.552zM384 0c0-35.346-28.654-64-64-64s-64 28.654-64 64c0 35.346 28.654 64 64 64s64-28.654 64-64zM832 0c0-35.346-28.654-64-64-64s-64 28.654-64 64c0 35.346 28.654 64 64 64s64-28.654 64-64z" />
<glyph unicode="&#xe92f;" glyph-name="cart-heart" d="M1002.112 574.336c-16.896 5.632-34.88-3.456-40.448-20.224l-117.888-353.664c-1.216-3.648-7.936-8.448-11.776-8.448h-544c-2.88 0-8 3.968-8.704 6.784l-112.448 449.92c-7.936 31.488-38.336 55.296-70.848 55.296h-64c-17.664 0-32-14.336-32-32s14.336-32 32-32h64c2.88 0 8-3.968 8.704-6.784l112.448-449.92c7.936-31.488 38.336-55.296 70.848-55.296h544c31.424 0 62.592 22.464 72.448 52.224l117.888 353.664c5.632 16.768-3.456 34.88-20.224 40.448zM384 0c0-35.346-28.654-64-64-64s-64 28.654-64 64c0 35.346 28.654 64 64 64s64-28.654 64-64zM832 0c0-35.346-28.654-64-64-64s-64 28.654-64 64c0 35.346 28.654 64 64 64s64-28.654 64-64zM553.344 393.408c6.016-6.016 14.144-9.408 22.656-9.408s16.64 3.392 22.656 9.408l191.168 192c56.064 56.32 56.064 147.968 0 204.224-54.464 54.592-149.312 54.592-203.712 0l-10.112-10.176-10.112 10.176c-54.464 54.592-149.312 54.592-203.776 0-56.064-56.32-56.064-147.968 0-204.224l191.232-192zM407.488 744.448c15.104 15.232 35.2 23.552 56.512 23.552s41.408-8.32 56.512-23.552l32.832-32.96c12.032-12.032 33.344-12.032 45.312 0l32.832 32.96c30.208 30.4 82.816 30.4 113.024 0 31.296-31.36 31.296-82.496 0-113.856l-168.512-169.28-168.512 169.28c-31.296 31.36-31.296 82.496 0 113.856z" />
<glyph unicode="&#xe930;" glyph-name="cart-lock" d="M1002.112 574.336c-16.768 5.504-34.88-3.456-40.512-20.224l-117.888-353.664c-1.152-3.648-7.808-8.448-11.712-8.448h-544c-2.944 0-8 3.904-8.704 6.784l-112.512 449.92c-7.872 31.488-38.272 55.296-70.784 55.296h-64c-17.664 0-32-14.336-32-32s14.336-32 32-32h64c2.944 0 8-3.904 8.704-6.784l112.512-449.92c7.872-31.488 38.272-55.296 70.784-55.296h544c31.36 0 62.592 22.464 72.512 52.224l117.888 353.664c5.568 16.768-3.52 34.88-20.288 40.448zM384 0c0-35.346-28.654-64-64-64s-64 28.654-64 64c0 35.346 28.654 64 64 64s64-28.654 64-64zM832 0c0-35.346-28.654-64-64-64s-64 28.654-64 64c0 35.346 28.654 64 64 64s64-28.654 64-64zM416 384.064h320c17.664 0 32 14.336 32 32v256c0 17.664-14.336 32-32 32h-32v63.936c0 70.592-57.408 128-128 128s-128-57.408-128-128v-63.936h-32c-17.664 0-32-14.336-32-32v-256c0-17.664 14.336-32 32-32zM512 768c0 35.264 28.672 64 64 64s64-28.736 64-64v-63.936h-128v63.936zM448 640.064h256v-192h-256v192z" />
<glyph unicode="&#xe931;" glyph-name="cart-magnifying-glass" d="M1002.112 574.336c-16.768 5.568-34.88-3.456-40.512-20.224l-117.888-353.664c-1.152-3.648-7.808-8.448-11.712-8.448h-544c-2.944 0-8 3.904-8.704 6.784l-112.512 449.92c-7.872 31.488-38.272 55.296-70.784 55.296h-64c-17.664 0-32-14.336-32-32s14.336-32 32-32h64c2.944 0 8-3.904 8.704-6.784l112.512-449.92c7.872-31.488 38.272-55.296 70.784-55.296h544c31.36 0 62.592 22.464 72.512 52.224l117.888 353.664c5.568 16.768-3.52 34.88-20.288 40.448zM384 0c0-35.346-28.654-64-64-64s-64 28.654-64 64c0 35.346 28.654 64 64 64s64-28.654 64-64zM832 0c0-35.346-28.654-64-64-64s-64 28.654-64 64c0 35.346 28.654 64 64 64s64-28.654 64-64zM448 512c41.408 0 79.552 13.44 110.912 35.84l154.432-154.432c6.272-6.272 14.464-9.408 22.656-9.408s16.384 3.136 22.656 9.344c12.48 12.48 12.48 32.768 0 45.248l-154.496 154.496c22.4 31.36 35.84 69.504 35.84 110.912 0 105.856-86.144 192-192 192s-192-86.144-192-192 86.144-192 192-192zM448 832c70.592 0 128-57.408 128-128s-57.408-128-128-128-128 57.408-128 128 57.408 128 128 128z" />
<glyph unicode="&#xe932;" glyph-name="cart-edit" d="M1002.112 574.336c-16.64 5.568-34.816-3.456-40.512-20.224l-117.888-353.664c-1.152-3.648-7.808-8.448-11.712-8.448h-544c-2.944 0-8 3.904-8.704 6.784l-112.512 449.92c-7.872 31.488-38.272 55.296-70.784 55.296h-64c-17.664 0-32-14.336-32-32s14.336-32 32-32h64c2.944 0 8-3.904 8.704-6.784l112.512-449.92c7.872-31.488 38.272-55.296 70.784-55.296h544c31.36 0 62.592 22.464 72.512 52.224l117.888 353.664c5.568 16.768-3.52 34.88-20.288 40.448zM384 0c0-35.346-28.654-64-64-64s-64 28.654-64 64c0 35.346 28.654 64 64 64s64-28.654 64-64zM832 0c0-35.346-28.654-64-64-64s-64 28.654-64 64c0 35.346 28.654 64 64 64s64-28.654 64-64zM361.728 384c6.656 0 13.504 1.472 19.968 4.544l125.312 58.368c16.128 7.552 30.912 17.984 43.264 30.336l272.256 254.72c37.696 37.696 37.696 99.072 0 136.832 0 0 0 0 0 0-37.696 37.632-99.072 37.632-136.128 0.704l-272.192-254.72c-12.928-12.928-23.68-28.16-31.040-44.032l-58.368-125.12c-8.128-17.408-5.248-36.864 7.424-49.536 7.872-7.936 18.432-12.096 29.504-12.096zM441.216 543.744c4.288 9.216 10.624 18.176 17.536 25.088l272.192 254.72c6.4 6.4 14.784 9.6 23.168 9.6s16.832-3.2 23.168-9.536c12.736-12.8 12.736-33.536 0.768-45.568l-272.256-254.72c-7.68-7.744-16.576-14.080-25.792-18.368l-72.704-33.92 33.92 72.704z" />
<glyph unicode="&#xe933;" glyph-name="cart-times" d="M1002.112 574.336c-16.64 5.568-34.816-3.456-40.512-20.224l-117.888-353.664c-1.152-3.648-7.808-8.448-11.712-8.448h-544c-2.944 0-8 3.904-8.704 6.784l-112.512 449.92c-7.872 31.488-38.272 55.296-70.784 55.296h-64c-17.664 0-32-14.336-32-32s14.336-32 32-32h64c2.944 0 8-3.904 8.704-6.784l112.512-449.92c7.872-31.488 38.272-55.296 70.784-55.296h544c31.36 0 62.592 22.464 72.512 52.224l117.888 353.664c5.568 16.768-3.52 34.88-20.288 40.448zM384 0c0-35.346-28.654-64-64-64s-64 28.654-64 64c0 35.346 28.654 64 64 64s64-28.654 64-64zM832 0c0-35.346-28.654-64-64-64s-64 28.654-64 64c0 35.346 28.654 64 64 64s64-28.654 64-64zM409.344 409.344c6.272-6.208 14.464-9.344 22.656-9.344s16.384 3.136 22.656 9.344l89.344 89.408 89.344-89.344c6.272-6.272 14.464-9.408 22.656-9.408s16.384 3.136 22.656 9.344c12.48 12.48 12.48 32.768 0 45.248l-89.408 89.408 89.344 89.344c12.48 12.48 12.48 32.768 0 45.248s-32.768 12.48-45.248 0l-89.344-89.344-89.344 89.408c-12.48 12.48-32.768 12.48-45.248 0s-12.48-32.768 0-45.248l89.344-89.408-89.408-89.344c-12.48-12.544-12.48-32.768 0-45.312z" />
<glyph unicode="&#xe934;" glyph-name="user-headset" d="M923.456 368.448l-91.52 152.576c-1.344 54.144-14.208 107.648-37.632 156.48 27.776 27.392 41.6 65.856 36.8 105.984-7.68 64.192-65.024 112.512-133.312 112.512h-236.032c-202.24 0-372.032-144.832-394.944-336.896-16.256-136.256 38.592-267.456 146.688-350.912 27.008-20.864 42.496-49.344 42.496-78.144v-98.048c0-17.664 14.336-32 32-32s32 14.336 32 32v98.048c0 48.832-24.576 95.808-67.392 128.832-90.112 69.568-135.808 178.944-122.24 292.672 16.064 134.528 120 240.32 253.632 270.72v-246.272c-70.592 0-128-57.408-128-128s57.408-128 128-128c25.984 0 50.176 7.872 70.4 21.248l167.36-111.872c5.44-3.648 11.584-5.376 17.728-5.376 10.368 0 20.48 4.992 26.624 14.208 9.856 14.656 5.888 34.56-8.832 44.352l-160.064 107.008c9.152 17.6 14.784 37.248 14.784 58.432 0 47.168-25.92 88-64 110.208v272.576c4.672 0.192 9.088 1.216 13.76 1.216h236.032c35.328 0 65.984-24.64 69.76-56.064 3.008-25.216-8.704-49.152-30.528-62.4-14.784-9.024-19.776-28.16-11.136-43.2 27.52-48.256 42.112-102.976 42.112-158.336 0-5.824 1.536-11.52 4.544-16.448l75.456-125.76-58.176-19.392c-12.992-4.416-21.824-16.64-21.824-30.4v-96c0-52.928-43.072-96-96-96h-64c-17.664 0-32-14.336-32-32v-64c0-17.664 14.336-32 32-32s32 14.336 32 32v32h32c88.192 0 160 71.808 160 160v72.96l74.112 24.704c9.216 3.072 16.512 10.112 19.904 19.264 3.328 9.088 2.432 19.2-2.56 27.52zM384 384c-35.264 0-64 28.736-64 64s28.736 64 64 64 64-28.736 64-64-28.736-64-64-64zM701.12 477.12c0-16.789-13.611-30.4-30.4-30.4s-30.4 13.611-30.4 30.4c0 16.789 13.611 30.4 30.4 30.4s30.4-13.611 30.4-30.4z" />
<glyph unicode="&#xe935;" glyph-name="user-play" d="M1006.336 156.608l-320 160c-9.92 4.928-21.76 4.416-31.104-1.408-9.472-5.824-15.232-16.128-15.232-27.2v-320c0-11.072 5.76-21.376 15.168-27.2 5.12-3.2 11.008-4.8 16.832-4.8 4.928 0 9.792 1.152 14.336 3.392l320 160c10.816 5.44 17.664 16.512 17.664 28.608s-6.848 23.168-17.664 28.608zM704 19.776v216.448l216.448-108.224-216.448-108.224zM640 672c0 158.784-114.816 288-256 288s-256-129.216-256-288c0-106.112 51.84-197.952 128-247.936v-8.064c0-30.464-16.576-58.24-41.216-69.184l-135.488-59.968c-48.192-21.312-79.296-71.424-79.296-127.616v-63.232c0-17.664 14.336-32 32-32s32 14.336 32 32v63.232c0 30.464 16.576 58.24 41.216 69.184l135.488 59.968c42.048 18.624 69.696 59.52 76.416 106.88 21.44-6.592 43.584-11.264 66.88-11.264s45.376 4.672 66.816 11.2c2.816-19.584 8.128-38.656 18.432-55.36 6.016-9.856 16.512-15.232 27.264-15.232 5.696 0 11.52 1.536 16.704 4.736 15.104 9.216 19.84 28.928 10.56 43.968-7.744 12.544-11.776 27.328-11.776 42.688v8.064c76.16 49.984 128 141.824 128 247.936zM192 672c0 123.52 86.144 224 192 224s192-100.48 192-224v0c0-123.52-86.144-224-192-224s-192 100.48-192 224z" />
<glyph unicode="&#xe936;" glyph-name="user-pointer" d="M950.656 182.656l-192 192c-9.152 9.152-22.912 11.968-34.88 6.912-11.968-4.928-19.776-16.64-19.776-29.568v-271.552c0-12.928 7.808-24.64 19.776-29.568 3.968-1.664 8.128-2.432 12.224-2.432 8.32 0 16.512 3.264 22.656 9.344l48 48.064 64.512-150.464c5.248-12.16 17.088-19.392 29.44-19.392 4.224 0 8.512 0.832 12.608 2.624 16.256 6.976 23.744 25.792 16.832 41.984l-63.616 148.48 60.992-1.088c12.928-0.576 24.96 7.488 30.016 19.52 5.12 11.968 2.432 25.856-6.784 35.136zM384 960c-141.184 0-256-129.216-256-288 0-106.112 51.84-197.952 128-247.936v-8.064c0-30.464-16.576-58.24-41.28-69.184l-135.36-59.904c-48.256-21.312-79.36-71.424-79.36-127.68v-63.232c0-17.664 14.336-32 32-32s32 14.336 32 32v63.232c0 30.464 16.576 58.24 41.28 69.184l135.36 59.968c42.112 18.56 69.76 59.52 76.48 106.88 21.44-6.592 43.584-11.264 66.88-11.264s45.376 4.672 66.816 11.2c2.816-19.648 8.192-38.72 18.432-55.36 6.080-9.792 16.576-15.232 27.264-15.232 5.76 0 11.584 1.536 16.768 4.736 15.040 9.28 19.776 28.992 10.496 44.032-7.744 12.48-11.776 27.2-11.776 42.624v8.064c76.16 49.984 128 141.824 128 248 0 158.72-114.816 287.936-256 287.936zM576 672c0-123.52-86.144-224-192-224s-192 100.48-192 224c0 123.52 86.144 224 192 224s192-100.48 192-224v0z" />
<glyph unicode="&#xe937;" glyph-name="table-arrow-down" d="M937.344 274.624l-105.344-105.344v306.752c0 17.664-14.336 32-32 32s-32-14.336-32-32v-306.752l-105.344 105.344c-12.48 12.48-32.768 12.48-45.248 0s-12.48-32.768 0-45.248l160-160c6.272-6.272 14.464-9.344 22.656-9.344s16.384 3.136 22.656 9.344l160 160c12.48 12.48 12.48 32.768 0 45.248s-32.832 12.48-45.376 0zM992 832h-960c-17.664 0-32-14.336-32-32v-576c0-17.664 14.336-32 32-32h448c17.664 0 32 14.336 32 32s-14.336 32-32 32h-224v127.744h224c17.664 0 32 14.336 32 32s-14.336 32-32 32h-224v128h320v-95.744c0-17.664 14.336-32 32-32s32 14.336 32 32v95.744h320v-95.744c0-17.664 14.336-32 32-32s32 14.336 32 32v320c0 17.664-14.336 32-32 32zM64 768h128v-128.256h-128v128.256zM192 256h-128v127.744h128v-127.744zM192 447.744h-128v128h128v-128zM256 639.744v128.256h320v-128.256h-320zM640 639.744v128.256h320v-128.256h-320z" />
<glyph unicode="&#xe938;" glyph-name="table-arrow-up" d="M822.656 374.656c-12.48 12.48-32.768 12.48-45.248 0l-160-160c-12.48-12.48-12.48-32.768 0-45.248s32.768-12.48 45.248 0l105.344 105.344v-306.752c0-17.664 14.336-32 32-32s32 14.336 32 32v306.752l105.344-105.344c6.272-6.272 14.464-9.408 22.656-9.408s16.384 3.136 22.656 9.344c12.48 12.48 12.48 32.768 0 45.248l-160 160.064zM992 832h-960c-17.664 0-32-14.336-32-32v-576c0-17.664 14.336-32 32-32h448c17.664 0 32 14.336 32 32s-14.336 32-32 32h-224v127.744h224c17.664 0 32 14.336 32 32s-14.336 32-32 32h-224v128h320v-95.744c0-17.664 14.336-32 32-32s32 14.336 32 32v95.744h320v-95.744c0-17.664 14.336-32 32-32s32 14.336 32 32v320c0 17.664-14.336 32-32 32zM64 768h128v-128.256h-128v128.256zM192 256h-128v127.744h128v-127.744zM192 447.744h-128v128h128v-128zM256 639.744v128.256h320v-128.256h-320zM640 639.744v128.256h320v-128.256h-320z" />
<glyph unicode="&#xe939;" glyph-name="table-ban" d="M992 832h-960c-17.664 0-32-14.336-32-32v-576c0-17.664 14.336-32 32-32h448c17.664 0 32 14.336 32 32s-14.336 32-32 32h-224v127.744h224c17.664 0 32 14.336 32 32s-14.336 32-32 32h-224v128h320v-95.744c0-17.664 14.336-32 32-32s32 14.336 32 32v95.744h320v-95.744c0-17.664 14.336-32 32-32s32 14.336 32 32v320c0 17.664-14.336 32-32 32zM192 256h-128v127.744h128v-127.744zM192 447.744h-128v128h128v-128zM192 639.744h-128v128.256h128v-128.256zM576 639.744h-320v128.256h320v-128.256zM960 639.744h-320v128.256h320v-128.256zM800 384c-123.52 0-224-100.48-224-224s100.48-224 224-224 224 100.48 224 224-100.48 224-224 224zM640 160c0 88.192 71.744 160 160 160 32.576 0 62.784-9.856 88.128-26.624l-221.44-221.44c-16.832 25.28-26.688 55.488-26.688 88.064zM800 0c-32.576 0-62.784 9.856-88.128 26.624l221.44 221.44c16.832-25.28 26.688-55.488 26.688-88.064 0-88.192-71.744-160-160-160z" />
<glyph unicode="&#xe93a;" glyph-name="table-chart" d="M608 192c-17.664 0-32-14.336-32-32v-192c0-17.664 14.336-32 32-32s32 14.336 32 32v192c0 17.664-14.336 32-32 32zM736 384c-17.664 0-32-14.336-32-32v-384c0-17.664 14.336-32 32-32s32 14.336 32 32v384c0 17.664-14.336 32-32 32zM864 256c-17.664 0-32-14.336-32-32v-256c0-17.664 14.336-32 32-32s32 14.336 32 32v256c0 17.664-14.336 32-32 32zM992 192c-17.664 0-32-14.336-32-32v-192c0-17.664 14.336-32 32-32s32 14.336 32 32v192c0 17.664-14.336 32-32 32zM992 832h-960c-17.664 0-32-14.336-32-32v-576c0-17.664 14.336-32 32-32h448c17.664 0 32 14.336 32 32s-14.336 32-32 32h-224v127.744h224c17.664 0 32 14.336 32 32s-14.336 32-32 32h-224v128h320v-95.744c0-17.664 14.336-32 32-32s32 14.336 32 32v95.744h320v-95.744c0-17.664 14.336-32 32-32s32 14.336 32 32v320c0 17.664-14.336 32-32 32zM192 256h-128v127.744h128v-127.744zM192 447.744h-128v128h128v-128zM192 639.744h-128v128.256h128v-128.256zM576 639.744h-320v128.256h320v-128.256zM960 639.744h-320v128.256h320v-128.256z" />
<glyph unicode="&#xe93b;" glyph-name="table-check" d="M969.344 310.656l-233.344-233.408-105.344 105.344c-12.48 12.48-32.768 12.48-45.248 0s-12.48-32.768 0-45.248l128-128c6.208-6.208 14.4-9.344 22.592-9.344s16.384 3.136 22.656 9.344l256 256c12.48 12.48 12.48 32.768 0 45.248s-32.768 12.544-45.312 0.064zM992 832h-960c-17.664 0-32-14.336-32-32v-576c0-17.664 14.336-32 32-32h448c17.664 0 32 14.336 32 32s-14.336 32-32 32h-224v127.744h224c17.664 0 32 14.336 32 32s-14.336 32-32 32h-224v128h320v-95.744c0-17.664 14.336-32 32-32s32 14.336 32 32v95.744h320v-95.744c0-17.664 14.336-32 32-32s32 14.336 32 32v320c0 17.664-14.336 32-32 32zM192 256h-128v127.744h128v-127.744zM192 447.744h-128v128h128v-128zM192 639.744h-128v128.256h128v-128.256zM576 639.744h-320v128.256h320v-128.256zM960 639.744h-320v128.256h320v-128.256z" />
<glyph unicode="&#xe93c;" glyph-name="table-clock" d="M992 832h-960c-17.664 0-32-14.336-32-32v-576c0-17.664 14.336-32 32-32h448c17.664 0 32 14.336 32 32s-14.336 32-32 32h-224v127.744h224c17.664 0 32 14.336 32 32s-14.336 32-32 32h-224v128h320v-95.744c0-17.664 14.336-32 32-32s32 14.336 32 32v95.744h320v-95.744c0-17.664 14.336-32 32-32s32 14.336 32 32v320c0 17.664-14.336 32-32 32zM192 256h-128v127.744h128v-127.744zM192 447.744h-128v128h128v-128zM192 639.744h-128v128.256h128v-128.256zM576 639.744h-320v128.256h320v-128.256zM960 639.744h-320v128.256h320v-128.256zM800 384c-123.52 0-224-100.48-224-224s100.48-224 224-224 224 100.48 224 224-100.48 224-224 224zM800 0c-88.256 0-160 71.808-160 160s71.744 160 160 160 160-71.808 160-160-71.744-160-160-160zM832 173.248v50.752c0 17.664-14.336 32-32 32s-32-14.336-32-32v-64c0-8.512 3.392-16.64 9.344-22.656l64-64c6.272-6.208 14.464-9.344 22.656-9.344s16.384 3.136 22.656 9.344c12.48 12.48 12.48 32.768 0 45.248l-54.656 54.656z" />
<glyph unicode="&#xe93d;" glyph-name="table-cursor" d="M992 832h-960c-17.664 0-32-14.336-32-32v-576c0-17.664 14.336-32 32-32h448c17.664 0 32 14.336 32 32s-14.336 32-32 32h-224v127.744h224c17.664 0 32 14.336 32 32s-14.336 32-32 32h-224v128h320v-95.744c0-17.664 14.336-32 32-32s32 14.336 32 32v95.744h320v-95.744c0-17.664 14.336-32 32-32s32 14.336 32 32v320c0 17.664-14.336 32-32 32zM192 256h-128v127.744h128v-127.744zM192 447.744h-128v128h128v-128zM192 639.744h-128v128.256h128v-128.256zM576 639.744h-320v128.256h320v-128.256zM960 639.744h-320v128.256h320v-128.256zM896 320h32c17.664 0 32 14.336 32 32s-14.336 32-32 32h-32c-38.208 0-72.512-16.832-96-43.456-23.488 26.624-57.792 43.456-96 43.456h-32c-17.664 0-32-14.336-32-32s14.336-32 32-32h32c35.264 0 64-28.736 64-64v-64h-32c-17.664 0-32-14.336-32-32s14.336-32 32-32h32v-64c0-35.264-28.736-64-64-64h-32c-17.664 0-32-14.336-32-32s14.336-32 32-32h32c38.208 0 72.512 16.832 96 43.456 23.488-26.624 57.792-43.456 96-43.456h32c17.664 0 32 14.336 32 32s-14.336 32-32 32h-32c-35.264 0-64 28.736-64 64v64h32c17.664 0 32 14.336 32 32s-14.336 32-32 32h-32v64c0 35.264 28.736 64 64 64z" />
<glyph unicode="&#xe93e;" glyph-name="table-edit" d="M995.904 355.84c-37.504 37.376-98.368 37.376-135.744 0l-190.912-190.976c-12.864-12.8-23.488-27.904-30.848-43.648l-57.792-123.776c-8.128-17.344-5.248-36.8 7.36-49.408 8-7.872 18.496-12.032 29.504-12.032 6.656 0 13.44 1.472 19.968 4.544l123.776 57.664c15.68 7.296 30.784 17.984 43.712 30.784l190.976 191.040c18.112 18.176 28.096 42.304 28.096 67.904 0 25.664-9.984 49.728-28.096 67.904 0 0 0 0 0 0zM950.656 265.344l-190.912-190.976c-7.68-7.616-16.512-13.824-25.472-18.048l-70.912-33.088 33.088 70.912c4.224 9.088 10.432 17.856 18.048 25.408l190.976 191.040c6.272 6.272 14.464 9.344 22.656 9.344s16.384-3.072 22.656-9.344c0 0 0 0 0 0 5.888-6.080 9.216-14.080 9.216-22.656 0-8.512-3.328-16.576-9.344-22.592zM992 832h-960c-17.664 0-32-14.336-32-32v-576c0-17.664 14.336-32 32-32h448c17.664 0 32 14.336 32 32s-14.336 32-32 32h-224v127.744h224c17.664 0 32 14.336 32 32s-14.336 32-32 32h-224v128h320v-95.744c0-17.664 14.336-32 32-32s32 14.336 32 32v95.744h320v-95.744c0-17.664 14.336-32 32-32s32 14.336 32 32v320c0 17.664-14.336 32-32 32zM192 256h-128v127.744h128v-127.744zM192 447.744h-128v128h128v-128zM192 639.744h-128v128.256h128v-128.256zM576 639.744h-320v128.256h320v-128.256zM960 639.744h-320v128.256h320v-128.256z" />
<glyph unicode="&#xe93f;" glyph-name="table-heart" d="M992 832h-960c-17.664 0-32-14.336-32-32v-576c0-17.664 14.336-32 32-32h448c17.664 0 32 14.336 32 32s-14.336 32-32 32h-224v127.744h224c17.664 0 32 14.336 32 32s-14.336 32-32 32h-224v128h320v-95.744c0-17.664 14.336-32 32-32s32 14.336 32 32v95.744h320v-95.744c0-17.664 14.336-32 32-32s32 14.336 32 32v320c0 17.664-14.336 32-32 32zM192 256h-128v127.744h128v-127.744zM192 447.744h-128v128h128v-128zM192 639.744h-128v128.256h128v-128.256zM576 639.744h-320v128.256h320v-128.256zM960 639.744h-320v128.256h320v-128.256zM979.904 355.008c-25.344 21.312-57.344 31.296-90.88 28.544-33.28-2.944-63.296-18.56-84.352-43.84l-4.672-5.568-4.608 5.44c-21.184 25.344-51.136 40.96-84.416 43.904-33.536 2.688-65.6-7.232-90.88-28.544-52.224-44.096-59.136-122.752-15.232-175.296l170.688-203.52c6.080-7.232 15.040-11.456 24.512-11.456s18.432 4.16 24.512 11.456l170.688 203.584c43.776 52.544 36.928 131.136-15.36 175.296 0 0 0 0 0 0zM946.112 220.864l-146.112-174.272-146.112 174.208c-21.312 25.536-17.984 63.808 7.424 85.312 10.816 9.024 24.32 13.888 38.528 13.888 1.792 0 3.648-0.064 5.504-0.256 16.192-1.408 30.72-8.896 40.96-21.184l29.184-34.752c12.096-14.528 36.864-14.528 49.024 0l29.248 34.816c10.176 12.224 24.704 19.712 40.896 21.12 16.64 1.6 31.872-3.456 44.032-13.696 25.408-21.44 28.736-59.712 7.424-85.184z" />
<glyph unicode="&#xe940;" glyph-name="table-lock" d="M992 192h-32v64c0 70.592-57.408 128-128 128s-128-57.408-128-128v-64h-32c-17.664 0-32-14.336-32-32v-192c0-17.664 14.336-32 32-32h320c17.664 0 32 14.336 32 32v192c0 17.664-14.336 32-32 32zM768 256c0 35.264 28.736 64 64 64s64-28.736 64-64v-64h-128v64zM960 0h-256v128h256v-128zM992 832h-960c-17.664 0-32-14.336-32-32v-576c0-17.664 14.336-32 32-32h448c17.664 0 32 14.336 32 32s-14.336 32-32 32h-224v127.744h224c17.664 0 32 14.336 32 32s-14.336 32-32 32h-224v128h320v-95.744c0-17.664 14.336-32 32-32s32 14.336 32 32v95.744h320v-95.744c0-17.664 14.336-32 32-32s32 14.336 32 32v320c0 17.664-14.336 32-32 32zM192 256h-128v127.744h128v-127.744zM192 447.744h-128v128h128v-128zM192 639.744h-128v128.256h128v-128.256zM576 639.744h-320v128.256h320v-128.256zM960 639.744h-320v128.256h320v-128.256z" />
<glyph unicode="&#xe941;" glyph-name="table-play" d="M1006.336 156.608l-320 160c-9.92 4.928-21.76 4.416-31.104-1.408-9.472-5.824-15.232-16.128-15.232-27.2v-320c0-11.072 5.76-21.376 15.168-27.2 5.12-3.2 11.008-4.8 16.832-4.8 4.928 0 9.792 1.152 14.336 3.392l320 160c10.816 5.44 17.664 16.512 17.664 28.608s-6.848 23.168-17.664 28.608zM704 19.776v216.448l216.448-108.224-216.448-108.224zM992 832h-960c-17.664 0-32-14.336-32-32v-576c0-17.664 14.336-32 32-32h448c17.664 0 32 14.336 32 32s-14.336 32-32 32h-224v127.744h224c17.664 0 32 14.336 32 32s-14.336 32-32 32h-224v128h320v-95.744c0-17.664 14.336-32 32-32s32 14.336 32 32v95.744h320v-95.744c0-17.664 14.336-32 32-32s32 14.336 32 32v320c0 17.664-14.336 32-32 32zM192 256h-128v127.744h128v-127.744zM192 447.744h-128v128h128v-128zM192 639.744h-128v128.256h128v-128.256zM576 639.744h-320v128.256h320v-128.256zM960 639.744h-320v128.256h320v-128.256z" />
<glyph unicode="&#xe942;" glyph-name="table-plus" d="M992 192.064h-160v160c0 17.664-14.336 32-32 32s-32-14.336-32-32v-160h-160c-17.664 0-32-14.336-32-32s14.336-32 32-32h160v-160c0-17.664 14.336-32 32-32s32 14.336 32 32v160h160c17.664 0 32 14.336 32 32s-14.336 32-32 32zM992 832h-960c-17.664 0-32-14.336-32-32v-576c0-17.664 14.336-32 32-32h448c17.664 0 32 14.336 32 32s-14.336 32-32 32h-224v127.744h224c17.664 0 32 14.336 32 32s-14.336 32-32 32h-224v128h320v-95.744c0-17.664 14.336-32 32-32s32 14.336 32 32v95.744h320v-95.744c0-17.664 14.336-32 32-32s32 14.336 32 32v320c0 17.664-14.336 32-32 32zM192 256h-128v127.744h128v-127.744zM192 447.744h-128v128h128v-128zM192 639.744h-128v128.256h128v-128.256zM576 639.744h-320v128.256h320v-128.256zM960 639.744h-320v128.256h320v-128.256z" />
<glyph unicode="&#xe943;" glyph-name="headset" d="M576 0c0-35.346-28.654-64-64-64s-64 28.654-64 64c0 35.346 28.654 64 64 64s64-28.654 64-64zM928 384h-32l-0.384 192.192c0 211.648-172.16 383.808-383.808 383.808s-383.808-172.16-383.808-383.808v-192.192h-32c-17.664 0-32-14.336-32-32s14.336-32 32-32h32v-32c0-41.664 26.816-76.864 64-90.112v-37.888c0-88.192 71.744-160 160-160 17.664 0 32 14.336 32 32s-14.336 32-32 32c-52.928 0-96 43.072-96 96v37.888c37.184 13.248 64 48.448 64 90.112v128c0 52.928-43.072 96-96 96-11.264 0-21.952-2.304-32-5.888v70.080c0 176.32 143.424 319.808 319.808 319.808s319.808-143.488 319.808-319.808v-69.952c-9.92 3.456-20.48 5.76-31.616 5.76-52.928 0-96-43.072-96-96v-128c0-52.928 43.072-96 96-96s96 43.072 96 96v32h32c17.664 0 32 14.336 32 32s-14.336 32-32 32zM224 448c17.6 0 32-14.336 32-32v-128c0-17.664-14.4-32-32-32s-32 14.336-32 32v128c0 17.664 14.4 32 32 32zM832 288c0-17.664-14.4-32-32-32s-32 14.336-32 32v128c0 17.664 14.4 32 32 32 16.96 0 30.592-13.376 31.616-30.144v-1.856c0-0.64 0.32-1.216 0.384-1.856v-126.144z" />
<glyph unicode="&#xe944;" glyph-name="tools" d="M958.592 98.816c0.128 26.624-10.24 51.648-29.184 70.4l-294.656 292.288 203.968 203.968c7.040 7.040 15.616 12.352 25.024 15.488l26.496 8.832c8 2.688 14.656 8.448 18.496 16l32 64-0.192-0.192c6.144 12.288 3.776 27.2-6.016 36.928-9.792 9.792-24.576 12.096-36.928 6.016l-64-32c-7.616-3.84-13.376-10.496-16-18.496l-8.832-26.496c-3.136-9.408-8.448-17.984-15.488-25.024l-203.968-203.968-65.92 65.408c-14.528 14.528-20.352 36.416-16 60.032 16.384 88.896-20.352 175.744-95.872 226.688-64.768 43.776-149.312 49.728-220.544 15.488-9.344-4.48-16-13.248-17.728-23.424-1.728-10.24 1.6-20.672 8.96-28.032l101.824-101.824c4.032-4.096 4.672-8.832 4.672-11.328s-0.64-7.232-4.672-11.328l-22.656-22.592c-8.192-8.128-14.464-8.192-22.656 0l-101.824 101.824c-7.36 7.36-17.664 10.688-28.032 8.896-10.176-1.728-18.944-8.32-23.488-17.728-33.472-70.016-27.072-156.992 16.448-221.504 50.944-75.52 137.728-112.192 226.688-95.872 23.552 4.416 45.504-1.408 59.904-15.808l16.768-16.96-247.936-247.872c-38.912-38.912-38.912-102.272 0.064-141.248 18.816-18.88 43.968-29.248 70.592-29.248s51.712 10.368 70.592 29.248l247.168 247.040 243.968-246.784c19.2-19.456 44.672-29.184 70.144-29.184 24.896 0 49.792 9.28 68.864 27.968l-22.4 22.848 22.656-22.656c19.072 18.688 29.632 43.584 29.696 70.208zM253.248 74.624c-13.952-14.016-36.672-13.888-50.752 0.064-6.784 6.784-10.496 15.808-10.496 25.344s3.712 18.56 10.496 25.344l245.504 245.376 50.752-50.752-245.504-245.376zM883.968 74.24l-0.128-0.128c-13.568-13.12-35.392-12.928-48.64 0.576l-401.408 405.888c-23.552 23.552-55.36 36.16-89.92 36.16-8.832 0-17.856-0.832-27.008-2.496-63.168-11.776-125.504 14.656-161.984 68.736-21.952 32.448-30.72 72.96-25.536 111.552l64.064-64.064c30.208-30.272 82.88-30.336 113.152 0l22.656 22.656c31.168 31.168 31.168 81.92 0 113.152l-64.192 64.128c38.784 5.312 78.72-3.136 110.72-24.704 54.080-36.48 80.448-98.56 68.736-161.984-8.192-44.736 4.096-87.36 33.792-117.056l406.080-402.88c6.656-6.592 10.304-15.36 10.24-24.704 0-9.344-3.712-18.048-10.624-24.832z" />
<glyph unicode="&#xe945;" glyph-name="table-pointer" d="M992 832h-960c-17.664 0-32-14.336-32-32v-576c0-17.664 14.336-32 32-32h448c17.664 0 32 14.336 32 32s-14.336 32-32 32h-224v127.744h224c17.664 0 32 14.336 32 32s-14.336 32-32 32h-224v128h320v-95.744c0-17.664 14.336-32 32-32s32 14.336 32 32v95.744h320v-95.744c0-17.664 14.336-32 32-32s32 14.336 32 32v320c0 17.664-14.336 32-32 32zM192 256h-128v127.744h128v-127.744zM192 447.744h-128v128h128v-128zM192 639.744h-128v128.256h128v-128.256zM576 639.744h-320v128.256h320v-128.256zM960 639.744h-320v128.256h320v-128.256zM758.656 374.656c-9.152 9.152-22.912 11.968-34.88 6.912-11.968-4.928-19.776-16.64-19.776-29.568v-271.552c0-12.928 7.808-24.64 19.776-29.568 3.968-1.664 8.128-2.432 12.224-2.432 8.32 0 16.512 3.264 22.656 9.344l48 48.064 64.512-150.464c5.248-12.16 17.088-19.392 29.44-19.392 4.224 0 8.512 0.832 12.608 2.624 16.256 6.976 23.744 25.792 16.832 41.984l-63.616 148.48 60.992-1.088c12.928-0.576 24.96 7.488 30.016 19.52 5.12 12.032 2.432 25.92-6.784 35.136l-192 192z" />
<glyph unicode="&#xe946;" glyph-name="table-search" d="M869.376 135.872c16.768 25.344 26.624 55.552 26.624 88.128 0 88.192-71.744 160-160 160s-160-71.808-160-160 71.744-160 160-160c32.576 0 62.784 9.856 88.128 26.624l145.28-145.28c6.208-6.208 14.4-9.344 22.592-9.344s16.384 3.136 22.656 9.344c12.48 12.48 12.48 32.768 0 45.248l-145.28 145.28zM736 128c-52.928 0-96 43.072-96 96s43.072 96 96 96 96-43.072 96-96-43.072-96-96-96zM992 832h-960c-17.664 0-32-14.336-32-32v-576c0-17.664 14.336-32 32-32h448c17.664 0 32 14.336 32 32s-14.336 32-32 32h-224v127.744h224c17.664 0 32 14.336 32 32s-14.336 32-32 32h-224v128h320v-95.744c0-17.664 14.336-32 32-32s32 14.336 32 32v95.744h320v-95.744c0-17.664 14.336-32 32-32s32 14.336 32 32v320c0 17.664-14.336 32-32 32zM192 256h-128v127.744h128v-127.744zM192 447.744h-128v128h128v-128zM192 639.744h-128v128.256h128v-128.256zM576 639.744h-320v128.256h320v-128.256zM960 639.744h-320v128.256h320v-128.256z" />
<glyph unicode="&#xe947;" glyph-name="table-user" d="M992 832h-960c-17.664 0-32-14.336-32-32v-576c0-17.664 14.336-32 32-32h448c17.664 0 32 14.336 32 32s-14.336 32-32 32h-224v127.744h224c17.664 0 32 14.336 32 32s-14.336 32-32 32h-224v128h320v-95.744c0-17.664 14.336-32 32-32s32 14.336 32 32v95.744h320v-95.744c0-17.664 14.336-32 32-32s32 14.336 32 32v320c0 17.664-14.336 32-32 32zM192 256h-128v127.744h128v-127.744zM192 447.744h-128v128h128v-128zM192 639.744h-128v128.256h128v-128.256zM576 639.744h-320v128.256h320v-128.256zM960 639.744h-320v128.256h320v-128.256zM970.24 75.52l-53.376 40.064c26.56 28.544 43.136 66.496 43.136 108.416 0 88.192-71.808 160-160 160s-160-71.808-160-160c0-41.984 16.576-79.872 43.072-108.416l-53.312-40.064c-33.664-25.216-53.76-65.408-53.76-107.52 0-17.664 14.336-32 32-32s32 14.336 32 32c0 22.016 10.56 43.072 28.16 56.32l69.632 52.288c19.136-8.128 40.192-12.608 62.208-12.608s43.008 4.48 62.144 12.544l69.696-52.288c17.6-13.184 28.16-34.24 28.16-56.256 0-17.664 14.336-32 32-32s32 14.336 32 32c0 42.112-20.096 82.304-53.76 107.52zM896 224c0-52.928-43.072-96-96-96s-96 43.072-96 96c0 52.928 43.072 96 96 96s96-43.072 96-96v0z" />
<glyph unicode="&#xe948;" glyph-name="table-wrench" d="M993.664 327.168l-91.84-91.84c-6.272-6.272-16.384-6.272-22.656 0l-67.904 67.84c-6.272 6.272-6.272 16.384 0 22.656l91.84 91.84c8.896 8.896 4.672 24.448-7.616 27.072-26.112 5.504-54.592 4.608-84.352-6.016-45.184-16.128-81.728-52.672-97.856-97.856-12.992-36.48-11.456-70.976-1.408-101.632 1.92-5.76 0.64-12.096-3.648-16.384l-174.72-174.848c-24.128-24.128-28.416-63.68-6.208-89.536 12.864-14.976 30.784-22.464 48.704-22.464 16.384 0 32.768 6.272 45.248 18.752l177.536 177.536c4.288 4.288 10.624 5.568 16.384 3.648 30.656-10.048 65.152-11.648 101.632 1.408 45.184 16.128 81.728 52.672 97.856 97.856 10.624 29.76 11.52 58.24 6.016 84.352-2.56 12.288-18.176 16.448-27.008 7.616zM992 832h-960c-17.664 0-32-14.336-32-32v-576c0-17.664 14.336-32 32-32h448c17.664 0 32 14.336 32 32s-14.336 32-32 32h-224v128h225.408c16.96 0.768 30.592 14.528 30.592 31.744 0 17.664-14.336 32-32 32h-224v128.256l320-0.256v-95.744c0-17.664 14.336-32 32-32s32 14.336 32 32v96l320-0.256v-95.744c0-17.664 14.336-32 32-32s32 14.336 32 32v320c0 17.664-14.336 32-32 32zM192 383.744v-127.744h-128v128h128v-0.256zM192 575.744v-128h-128v128.256h128v-0.256zM192 639.744h-128v128.256h128v-128.256zM576 639.744h-320v128.256h320v-128.256zM960 639.744h-320v128.256h320v-128.256z" />
<glyph unicode="&#xe949;" glyph-name="table-x" d="M958.4 318.464c-12.48 12.48-32.768 12.48-45.248 0l-113.152-113.152-113.152 113.152c-12.48 12.48-32.768 12.48-45.248 0s-12.48-32.768 0-45.248l113.152-113.152-113.152-113.152c-12.48-12.48-12.48-32.768 0-45.248 6.272-6.272 14.464-9.344 22.656-9.344s16.384 3.136 22.656 9.344l113.152 113.152 113.152-113.152c6.272-6.272 14.464-9.344 22.656-9.344s16.384 3.136 22.656 9.344c12.48 12.48 12.48 32.768 0 45.248l-113.152 113.152 113.152 113.152c12.352 12.48 12.352 32.768-0.128 45.248zM992 832h-960c-17.664 0-32-14.336-32-32v-576c0-17.664 14.336-32 32-32h448c17.664 0 32 14.336 32 32s-14.336 32-32 32h-224v127.744h224c17.664 0 32 14.336 32 32s-14.336 32-32 32h-224v128h320v-95.744c0-17.664 14.336-32 32-32s32 14.336 32 32v95.744h320v-95.744c0-17.664 14.336-32 32-32s32 14.336 32 32v320c0 17.664-14.336 32-32 32zM192 256h-128v127.744h128v-127.744zM192 447.744h-128v128h128v-128zM192 639.744h-128v128.256h128v-128.256zM576 639.744h-320v128.256h320v-128.256zM960 639.744h-320v128.256h320v-128.256z" />
<glyph unicode="&#xe94a;" glyph-name="folder-arrow-down" d="M937.344 150.656l-105.344-105.408v306.752c0 17.664-14.336 32-32 32s-32-14.336-32-32v-306.752l-105.344 105.344c-12.48 12.48-32.768 12.48-45.248 0s-12.48-32.768 0-45.248l160-160c6.208-6.208 14.4-9.344 22.592-9.344s16.384 3.136 22.656 9.344l160 160c12.48 12.48 12.48 32.768 0 45.248s-32.768 12.544-45.312 0.064zM928 704h-485.504c-8.384 0-16.64 3.392-22.656 9.344l-81.088 81.152c-23.808 23.872-56.832 37.504-90.496 37.504h-152.256c-52.928 0-96-43.072-96-96v-576c0-52.928 43.072-96 96-96h384c17.664 0 32 14.336 32 32s-14.336 32-32 32h-384c-17.664 0-32 14.336-32 32v576c0 17.664 14.336 32 32 32h152.256c16.832 0 33.344-6.848 45.248-18.752l81.152-81.152c18.112-18.112 42.24-28.096 67.84-28.096h485.504c17.664 0 32-14.336 32-32v-128c0-17.664 14.336-32 32-32s32 14.336 32 32v128c0 52.928-43.072 96-96 96z" />
<glyph unicode="&#xe94b;" glyph-name="folder-arrow-up" d="M822.656 374.656c-12.48 12.48-32.768 12.48-45.248 0l-160-160c-12.48-12.48-12.48-32.768 0-45.248s32.768-12.48 45.248 0l105.344 105.344v-306.752c0-17.664 14.336-32 32-32s32 14.336 32 32v306.752l105.344-105.344c6.272-6.272 14.464-9.408 22.656-9.408s16.384 3.136 22.656 9.344c12.48 12.48 12.48 32.768 0 45.248l-160 160.064zM928 704h-485.504c-8.448 0-16.704 3.392-22.592 9.344l-81.152 81.152c-23.808 23.872-56.832 37.504-90.496 37.504h-152.256c-52.928 0-96-43.072-96-96v-576c0-52.928 43.072-96 96-96h384c17.664 0 32 14.336 32 32s-14.336 32-32 32h-384c-17.6 0-32 14.336-32 32v576c0 17.664 14.4 32 32 32h152.256c16.832 0 33.344-6.848 45.248-18.752l81.152-81.152c17.856-17.856 42.624-28.096 67.84-28.096h485.504c17.6 0 32-14.336 32-32v-128c0-17.664 14.336-32 32-32s32 14.336 32 32v128c0 52.928-43.072 96-96 96z" />
<glyph unicode="&#xe94c;" glyph-name="folder-ban" d="M800 384c-123.52 0-224-100.48-224-224s100.48-224 224-224 224 100.48 224 224-100.48 224-224 224zM800 320c32.576 0 62.784-9.856 88.128-26.624l-221.44-221.44c-16.832 25.28-26.688 55.488-26.688 88.064 0 88.192 71.744 160 160 160zM800 0c-32.576 0-62.784 9.856-88.128 26.624l221.44 221.44c16.832-25.28 26.688-55.488 26.688-88.064 0-88.192-71.744-160-160-160zM928 704h-485.504c-8.448 0-16.704 3.392-22.592 9.344l-81.152 81.152c-23.808 23.872-56.832 37.504-90.496 37.504h-152.256c-52.928 0-96-43.072-96-96v-576c0-52.928 43.072-96 96-96h384c17.664 0 32 14.336 32 32s-14.336 32-32 32h-384c-17.6 0-32 14.336-32 32v576c0 17.664 14.4 32 32 32h152.256c16.832 0 33.344-6.848 45.248-18.752l81.152-81.152c17.856-17.856 42.624-28.096 67.84-28.096h485.504c17.6 0 32-14.336 32-32v-128c0-17.664 14.336-32 32-32s32 14.336 32 32v128c0 52.928-43.072 96-96 96z" />
<glyph unicode="&#xe94d;" glyph-name="folder-chart" d="M608 192c-17.664 0-32-14.336-32-32v-192c0-17.664 14.336-32 32-32s32 14.336 32 32v192c0 17.664-14.336 32-32 32zM736 384c-17.664 0-32-14.336-32-32v-384c0-17.664 14.336-32 32-32s32 14.336 32 32v384c0 17.664-14.336 32-32 32zM864 256c-17.664 0-32-14.336-32-32v-256c0-17.664 14.336-32 32-32s32 14.336 32 32v256c0 17.664-14.336 32-32 32zM992 192c-17.664 0-32-14.336-32-32v-192c0-17.664 14.336-32 32-32s32 14.336 32 32v192c0 17.664-14.336 32-32 32zM928 704h-485.504c-8.448 0-16.704 3.392-22.592 9.344l-81.152 81.152c-23.808 23.872-56.832 37.504-90.496 37.504h-152.256c-52.928 0-96-43.072-96-96v-576c0-52.928 43.072-96 96-96h384c17.664 0 32 14.336 32 32s-14.336 32-32 32h-384c-17.6 0-32 14.336-32 32v576c0 17.664 14.4 32 32 32h152.256c16.832 0 33.344-6.848 45.248-18.752l81.152-81.152c17.856-17.856 42.624-28.096 67.84-28.096h485.504c17.6 0 32-14.336 32-32v-128c0-17.664 14.336-32 32-32s32 14.336 32 32v128c0 52.928-43.072 96-96 96z" />
<glyph unicode="&#xe94e;" glyph-name="folder-check" d="M969.344 310.656l-233.344-233.408-105.344 105.344c-12.48 12.48-32.768 12.48-45.248 0s-12.48-32.768 0-45.248l128-128c6.208-6.208 14.4-9.344 22.592-9.344s16.384 3.136 22.656 9.344l256 256c12.48 12.48 12.48 32.768 0 45.248s-32.768 12.544-45.312 0.064zM928 704h-485.504c-8.448 0-16.704 3.392-22.592 9.344l-81.152 81.152c-23.808 23.872-56.832 37.504-90.496 37.504h-152.256c-52.928 0-96-43.072-96-96v-576c0-52.928 43.072-96 96-96h384c17.664 0 32 14.336 32 32s-14.336 32-32 32h-384c-17.6 0-32 14.336-32 32v576c0 17.664 14.4 32 32 32h152.256c16.832 0 33.344-6.848 45.248-18.752l81.152-81.152c17.856-17.856 42.624-28.096 67.84-28.096h485.504c17.6 0 32-14.336 32-32v-128c0-17.664 14.336-32 32-32s32 14.336 32 32v128c0 52.928-43.072 96-96 96z" />
<glyph unicode="&#xe94f;" glyph-name="folder-clock" d="M800 384c-123.52 0-224-100.48-224-224s100.48-224 224-224 224 100.48 224 224-100.48 224-224 224zM800 0c-88.256 0-160 71.808-160 160s71.744 160 160 160 160-71.808 160-160-71.744-160-160-160zM832 173.248v50.752c0 17.664-14.336 32-32 32s-32-14.336-32-32v-64c0-8.512 3.392-16.64 9.344-22.656l64-64c6.272-6.208 14.464-9.344 22.656-9.344s16.384 3.136 22.656 9.344c12.48 12.48 12.48 32.768 0 45.248l-54.656 54.656zM928 704h-485.504c-8.448 0-16.704 3.392-22.592 9.344l-81.152 81.152c-23.808 23.872-56.832 37.504-90.496 37.504h-152.256c-52.928 0-96-43.072-96-96v-576c0-52.928 43.072-96 96-96h384c17.664 0 32 14.336 32 32s-14.336 32-32 32h-384c-17.6 0-32 14.336-32 32v576c0 17.664 14.4 32 32 32h152.256c16.832 0 33.344-6.848 45.248-18.752l81.152-81.152c17.856-17.856 42.624-28.096 67.84-28.096h485.504c17.6 0 32-14.336 32-32v-128c0-17.664 14.336-32 32-32s32 14.336 32 32v128c0 52.928-43.072 96-96 96z" />
<glyph unicode="&#xe950;" glyph-name="folder-cursor" d="M896 320h32c17.664 0 32 14.336 32 32s-14.336 32-32 32h-32c-38.208 0-72.512-16.832-96-43.456-23.488 26.624-57.792 43.456-96 43.456h-32c-17.664 0-32-14.336-32-32s14.336-32 32-32h32c35.264 0 64-28.736 64-64v-64h-32c-17.664 0-32-14.336-32-32s14.336-32 32-32h32v-64c0-35.264-28.736-64-64-64h-32c-17.664 0-32-14.336-32-32s14.336-32 32-32h32c38.208 0 72.512 16.832 96 43.456 23.488-26.624 57.792-43.456 96-43.456h32c17.664 0 32 14.336 32 32s-14.336 32-32 32h-32c-35.264 0-64 28.736-64 64v64h32c17.664 0 32 14.336 32 32s-14.336 32-32 32h-32v64c0 35.264 28.736 64 64 64zM928 704h-485.504c-8.384 0-16.64 3.392-22.656 9.344l-81.088 81.152c-23.808 23.872-56.832 37.504-90.56 37.504h-152.192c-52.928 0-96-43.072-96-96v-576c0-52.928 43.072-96 96-96h384c17.664 0 32 14.336 32 32s-14.336 32-32 32h-384c-17.664 0-32 14.336-32 32v576c0 17.664 14.336 32 32 32h152.192c16.896 0 33.408-6.848 45.312-18.752l81.152-81.152c18.112-18.112 42.24-28.096 67.84-28.096h485.504c17.664 0 32-14.336 32-32v-128c0-17.664 14.336-32 32-32s32 14.336 32 32v128c0 52.928-43.072 96-96 96z" />
<glyph unicode="&#xe951;" glyph-name="folder-edit" d="M995.904 355.84c-37.504 37.376-98.368 37.376-135.744 0l-191.104-191.040c-12.736-12.8-23.36-27.904-30.656-43.584l-57.792-123.776c-8.128-17.344-5.248-36.8 7.36-49.408 8-7.872 18.496-12.032 29.504-12.032 6.656 0 13.44 1.472 19.968 4.544l123.776 57.664c15.68 7.296 30.784 17.984 43.712 30.784l190.976 191.040c18.112 18.176 28.096 42.304 28.096 67.904 0 25.664-9.984 49.728-28.096 67.904 0 0 0 0 0 0zM950.656 265.344l-190.912-190.976c-7.68-7.616-16.512-13.824-25.472-18.048l-70.912-33.088 33.088 70.912c4.224 9.088 10.432 17.856 17.984 25.408l191.040 191.040c6.272 6.272 14.464 9.344 22.656 9.344s16.384-3.072 22.656-9.344c0 0 0 0 0 0 5.888-6.080 9.216-14.080 9.216-22.656 0-8.512-3.328-16.576-9.344-22.592zM928 704h-485.504c-8.448 0-16.704 3.392-22.592 9.344l-81.152 81.152c-23.808 23.872-56.832 37.504-90.496 37.504h-152.256c-52.928 0-96-43.072-96-96v-576c0-52.928 43.072-96 96-96h384c17.664 0 32 14.336 32 32s-14.336 32-32 32h-384c-17.6 0-32 14.336-32 32v576c0 17.664 14.4 32 32 32h152.256c16.832 0 33.344-6.848 45.248-18.752l81.152-81.152c17.856-17.856 42.624-28.096 67.84-28.096h485.504c17.6 0 32-14.336 32-32v-128c0-17.664 14.336-32 32-32s32 14.336 32 32v128c0 52.928-43.072 96-96 96z" />
<glyph unicode="&#xe952;" glyph-name="folder-heart" d="M889.088 383.552c-33.28-2.944-63.296-18.56-84.416-43.84l-4.672-5.568-4.608 5.44c-21.184 25.344-51.136 40.96-84.416 43.904-33.536 2.688-65.6-7.232-90.88-28.544-52.224-44.096-59.136-122.752-15.232-175.296l170.688-203.52c6.080-7.232 15.040-11.456 24.512-11.456s18.432 4.16 24.512 11.456l170.688 203.584c43.84 52.48 36.992 131.072-15.36 175.232-25.28 21.376-57.664 31.36-90.816 28.608zM946.112 220.864l-146.112-174.272-146.112 174.208c-21.312 25.536-17.984 63.808 7.424 85.312 10.816 9.024 24.32 13.888 38.528 13.888 1.792 0 3.648-0.064 5.504-0.256 16.192-1.408 30.72-8.896 40.96-21.184l29.184-34.752c12.096-14.528 36.864-14.528 49.024 0l29.248 34.816c10.176 12.224 24.704 19.712 40.96 21.12 16.32 1.6 31.808-3.456 43.968-13.696 25.344-21.44 28.736-59.712 7.424-85.184zM928 704h-485.504c-8.384 0-16.64 3.392-22.656 9.344l-81.088 81.152c-23.808 23.872-56.832 37.504-90.56 37.504h-152.192c-52.928 0-96-43.072-96-96v-576c0-52.928 43.072-96 96-96h384c17.664 0 32 14.336 32 32s-14.336 32-32 32h-384c-17.664 0-32 14.336-32 32v576c0 17.664 14.336 32 32 32h152.192c16.896 0 33.408-6.848 45.312-18.752l81.152-81.152c18.112-18.112 42.24-28.096 67.84-28.096h485.504c17.664 0 32-14.336 32-32v-128c0-17.664 14.336-32 32-32s32 14.336 32 32v128c0 52.928-43.072 96-96 96z" />
<glyph unicode="&#xe953;" glyph-name="folder-lock" d="M992 192h-32v64c0 70.592-57.408 128-128 128s-128-57.408-128-128v-64h-32c-17.664 0-32-14.336-32-32v-192c0-17.664 14.336-32 32-32h320c17.664 0 32 14.336 32 32v192c0 17.664-14.336 32-32 32zM768 256c0 35.264 28.736 64 64 64s64-28.736 64-64v-64h-128v64zM960 0h-256v128h256v-128zM928 704h-485.504c-8.384 0-16.64 3.392-22.656 9.344l-81.088 81.152c-23.808 23.872-56.832 37.504-90.56 37.504h-152.192c-52.928 0-96-43.072-96-96v-576c0-52.928 43.072-96 96-96h384c17.664 0 32 14.336 32 32s-14.336 32-32 32h-384c-17.664 0-32 14.336-32 32v576c0 17.664 14.336 32 32 32h152.192c16.896 0 33.408-6.848 45.312-18.752l81.152-81.152c18.112-18.112 42.24-28.096 67.84-28.096h485.504c17.664 0 32-14.336 32-32v-128c0-17.664 14.336-32 32-32s32 14.336 32 32v128c0 52.928-43.072 96-96 96z" />
<glyph unicode="&#xe954;" glyph-name="folder-play" d="M1006.336 156.608l-320 160c-9.92 4.928-21.76 4.416-31.104-1.408-9.472-5.824-15.232-16.128-15.232-27.2v-320c0-11.072 5.76-21.376 15.168-27.2 5.12-3.2 11.008-4.8 16.832-4.8 4.928 0 9.792 1.152 14.336 3.392l320 160c10.816 5.44 17.664 16.512 17.664 28.608s-6.848 23.168-17.664 28.608zM704 19.776v216.448l216.448-108.224-216.448-108.224zM928 704h-485.504c-8.384 0-16.64 3.392-22.656 9.344l-81.088 81.152c-23.808 23.872-56.832 37.504-90.56 37.504h-152.192c-52.928 0-96-43.072-96-96v-576c0-52.928 43.072-96 96-96h384c17.664 0 32 14.336 32 32s-14.336 32-32 32h-384c-17.664 0-32 14.336-32 32v576c0 17.664 14.336 32 32 32h152.192c16.896 0 33.408-6.848 45.312-18.752l81.152-81.152c18.112-18.112 42.24-28.096 67.84-28.096h485.504c17.664 0 32-14.336 32-32v-128c0-17.664 14.336-32 32-32s32 14.336 32 32v128c0 52.928-43.072 96-96 96z" />
<glyph unicode="&#xe955;" glyph-name="folder-plus" d="M992 192.064h-160v160c0 17.664-14.336 32-32 32s-32-14.336-32-32v-160h-160c-17.664 0-32-14.336-32-32s14.336-32 32-32h160v-160c0-17.664 14.336-32 32-32s32 14.336 32 32v160h160c17.664 0 32 14.336 32 32s-14.336 32-32 32zM928 704h-485.504c-8.384 0-16.64 3.392-22.656 9.344l-81.088 81.152c-23.808 23.872-56.832 37.504-90.56 37.504h-152.192c-52.928 0-96-43.072-96-96v-576c0-52.928 43.072-96 96-96h384c17.664 0 32 14.336 32 32s-14.336 32-32 32h-384c-17.664 0-32 14.336-32 32v576c0 17.664 14.336 32 32 32h152.192c16.896 0 33.408-6.848 45.312-18.752l81.152-81.152c18.112-18.112 42.24-28.096 67.84-28.096h485.504c17.664 0 32-14.336 32-32v-128c0-17.664 14.336-32 32-32s32 14.336 32 32v128c0 52.928-43.072 96-96 96z" />
<glyph unicode="&#xe956;" glyph-name="folder-pointer" d="M758.656 374.656c-9.152 9.152-22.912 11.968-34.88 6.912-11.968-4.928-19.776-16.64-19.776-29.568v-271.552c0-12.928 7.808-24.64 19.776-29.568 3.968-1.664 8.128-2.432 12.224-2.432 8.32 0 16.512 3.264 22.656 9.344l48 48.064 64.512-150.464c5.248-12.16 17.088-19.392 29.44-19.392 4.224 0 8.512 0.832 12.608 2.624 16.256 6.976 23.744 25.792 16.832 41.984l-63.616 148.48 60.992-1.088c12.928-0.576 24.96 7.488 30.016 19.52 5.12 12.032 2.432 25.92-6.784 35.136l-192 192zM928 704h-485.504c-8.448 0-16.704 3.392-22.592 9.344l-81.152 81.152c-23.808 23.872-56.832 37.504-90.496 37.504h-152.256c-52.928 0-96-43.072-96-96v-576c0-52.928 43.072-96 96-96h384c17.664 0 32 14.336 32 32s-14.336 32-32 32h-384c-17.6 0-32 14.336-32 32v576c0 17.664 14.4 32 32 32h152.256c16.832 0 33.344-6.848 45.248-18.752l81.152-81.152c17.856-17.856 42.624-28.096 67.84-28.096h485.504c17.6 0 32-14.336 32-32v-128c0-17.664 14.336-32 32-32s32 14.336 32 32v128c0 52.928-43.072 96-96 96z" />
<glyph unicode="&#xe957;" glyph-name="folder-search" d="M869.376 135.872c16.768 25.344 26.624 55.552 26.624 88.128 0 88.192-71.744 160-160 160s-160-71.808-160-160 71.744-160 160-160c32.576 0 62.784 9.856 88.128 26.624l145.28-145.28c6.208-6.208 14.4-9.344 22.592-9.344s16.384 3.136 22.656 9.344c12.48 12.48 12.48 32.768 0 45.248l-145.28 145.28zM640 224c0 52.928 43.072 96 96 96s96-43.072 96-96-43.072-96-96-96-96 43.072-96 96zM928 704h-485.504c-8.448 0-16.704 3.392-22.592 9.344l-81.152 81.152c-23.808 23.872-56.832 37.504-90.496 37.504h-152.256c-52.928 0-96-43.072-96-96v-576c0-52.928 43.072-96 96-96h384c17.664 0 32 14.336 32 32s-14.336 32-32 32h-384c-17.6 0-32 14.336-32 32v576c0 17.664 14.4 32 32 32h152.256c16.832 0 33.344-6.848 45.248-18.752l81.152-81.152c17.856-17.856 42.624-28.096 67.84-28.096h485.504c17.6 0 32-14.336 32-32v-128c0-17.664 14.336-32 32-32s32 14.336 32 32v128c0 52.928-43.072 96-96 96z" />
<glyph unicode="&#xe958;" glyph-name="folder-user" d="M970.24 75.52l-53.376 40.064c26.56 28.544 43.136 66.496 43.136 108.416 0 88.192-71.808 160-160 160s-160-71.808-160-160c0-41.984 16.576-79.872 43.072-108.416l-53.312-40.064c-33.664-25.216-53.76-65.408-53.76-107.52 0-17.664 14.336-32 32-32s32 14.336 32 32c0 22.016 10.56 43.072 28.16 56.32l69.632 52.288c19.136-8.128 40.192-12.608 62.208-12.608s43.008 4.48 62.144 12.544l69.696-52.288c17.6-13.184 28.16-34.24 28.16-56.256 0-17.664 14.336-32 32-32s32 14.336 32 32c0 42.112-20.096 82.304-53.76 107.52zM704 224c0 52.928 43.072 96 96 96s96-43.072 96-96v0c0-52.928-43.072-96-96-96s-96 43.072-96 96zM928 704h-485.504c-8.384 0-16.64 3.392-22.656 9.344l-81.088 81.152c-23.808 23.872-56.832 37.504-90.56 37.504h-152.192c-52.928 0-96-43.072-96-96v-576c0-52.928 43.072-96 96-96h384c17.664 0 32 14.336 32 32s-14.336 32-32 32h-384c-17.664 0-32 14.336-32 32v576c0 17.664 14.336 32 32 32h152.192c16.896 0 33.408-6.848 45.312-18.752l81.152-81.152c18.112-18.112 42.24-28.096 67.84-28.096h485.504c17.664 0 32-14.336 32-32v-128c0-17.664 14.336-32 32-32s32 14.336 32 32v128c0 52.928-43.072 96-96 96z" />
<glyph unicode="&#xe959;" glyph-name="folder-wrench" d="M928 704h-485.504c-8.384 0-16.64 3.392-22.656 9.344l-81.088 81.152c-23.808 23.872-56.832 37.504-90.56 37.504h-152.192c-52.928 0-96-43.072-96-96v-576c0-52.928 43.072-96 96-96h320c17.664 0 32 14.336 32 32s-14.336 32-32 32h-320c-17.664 0-32 14.336-32 32v576c0 17.664 14.336 32 32 32h152.192c16.896 0 33.408-6.848 45.312-18.752l81.152-81.152c18.112-18.112 42.24-28.096 67.84-28.096h485.504c17.664 0 32-14.336 32-32v-64c0-17.664 14.336-32 32-32s32 14.336 32 32v64c0 52.928-43.072 96-96 96zM993.6 327.168l-91.968-91.84c-6.272-6.272-16.384-6.272-22.656 0l-67.968 67.84c-6.272 6.272-6.272 16.384 0 22.656l91.968 91.84c8.896 8.896 4.672 24.448-7.616 27.072-26.176 5.504-54.656 4.608-84.48-6.016-45.248-16.128-81.856-52.672-97.984-97.856-13.056-36.48-11.456-70.976-1.408-101.632 1.92-5.76 0.64-12.096-3.712-16.384l-175.040-174.848c-24.128-24.128-28.416-63.68-6.208-89.536 12.864-14.976 30.784-22.464 48.768-22.464 16.384 0 32.832 6.272 45.312 18.752l177.792 177.536c4.288 4.288 10.624 5.568 16.384 3.648 30.72-10.048 65.28-11.648 101.824 1.408 45.248 16.128 81.856 52.672 97.984 97.856 10.624 29.76 11.52 58.24 6.080 84.352-2.56 12.288-18.176 16.448-27.072 7.616z" />
<glyph unicode="&#xe95a;" glyph-name="folder-x" d="M958.4 318.464c-12.48 12.48-32.768 12.48-45.248 0l-113.152-113.152-113.152 113.152c-12.48 12.48-32.768 12.48-45.248 0s-12.48-32.768 0-45.248l113.152-113.152-113.152-113.152c-12.48-12.48-12.48-32.768 0-45.248 6.272-6.272 14.464-9.344 22.656-9.344s16.384 3.136 22.656 9.344l113.152 113.152 113.152-113.152c6.272-6.272 14.464-9.344 22.656-9.344s16.384 3.136 22.656 9.344c12.48 12.48 12.48 32.768 0 45.248l-113.152 113.152 113.152 113.152c12.352 12.48 12.352 32.768-0.128 45.248zM928 704h-485.504c-8.384 0-16.64 3.392-22.656 9.344l-81.088 81.152c-23.808 23.872-56.832 37.504-90.56 37.504h-152.192c-52.928 0-96-43.072-96-96v-576c0-52.928 43.072-96 96-96h384c17.664 0 32 14.336 32 32s-14.336 32-32 32h-384c-17.664 0-32 14.336-32 32v576c0 17.664 14.336 32 32 32h152.192c16.896 0 33.408-6.848 45.312-18.752l81.152-81.152c18.112-18.112 42.24-28.096 67.84-28.096h485.504c17.664 0 32-14.336 32-32v-128c0-17.664 14.336-32 32-32s32 14.336 32 32v128c0 52.928-43.072 96-96 96z" />
<glyph unicode="&#xe95b;" glyph-name="file-arrow-down" d="M832 640v-160c0-17.664 14.336-32 32-32s32 14.336 32 32v224c0 8.512-3.392 16.64-9.344 22.656l-224 224c-6.016 5.952-14.144 9.344-22.656 9.344h-480c-17.664 0-32-14.336-32-32v-960c0-17.664 14.336-32 32-32h320c17.664 0 32 14.336 32 32s-14.336 32-32 32h-288v896h384v-224c0-17.664 14.336-32 32-32h224zM818.752 704h-178.752v178.752l178.752-178.752zM982.656 150.656c-12.48 12.48-32.768 12.48-45.248 0l-105.408-105.408v306.752c0 17.664-14.336 32-32 32s-32-14.336-32-32v-306.752l-105.344 105.344c-12.48 12.48-32.768 12.48-45.248 0s-12.48-32.768 0-45.248l160-160c6.208-6.208 14.4-9.344 22.592-9.344s16.384 3.136 22.656 9.344l160 160c12.48 12.544 12.48 32.768 0 45.312z" />
<glyph unicode="&#xe95c;" glyph-name="file-arrow-up" d="M832 640v-160c0-17.664 14.336-32 32-32s32 14.336 32 32v224c0 8.512-3.392 16.64-9.344 22.656l-224 224c-6.016 5.952-14.144 9.344-22.656 9.344h-480c-17.664 0-32-14.336-32-32v-960c0-17.664 14.336-32 32-32h320c17.664 0 32 14.336 32 32s-14.336 32-32 32h-288v896h384v-224c0-17.664 14.336-32 32-32h224zM818.752 704h-178.752v178.752l178.752-178.752zM982.656 214.656l-160 160c-12.48 12.48-32.768 12.48-45.248 0l-160-160c-12.48-12.48-12.48-32.768 0-45.248s32.768-12.48 45.248 0l105.344 105.344v-306.752c0-17.664 14.336-32 32-32s32 14.336 32 32v306.752l105.344-105.344c6.272-6.272 14.464-9.408 22.656-9.408s16.384 3.136 22.656 9.344c12.48 12.544 12.48 32.768 0 45.312z" />
<glyph unicode="&#xe95d;" glyph-name="file-ban" d="M480 0h-288v896h384v-224c0-17.664 14.336-32 32-32h224v-160c0-17.664 14.336-32 32-32s32 14.336 32 32v224c0 8.512-3.392 16.64-9.344 22.656l-224 224c-6.016 5.952-14.144 9.344-22.656 9.344h-480c-17.664 0-32-14.336-32-32v-960c0-17.664 14.336-32 32-32h320c17.664 0 32 14.336 32 32s-14.336 32-32 32zM818.752 704h-178.752v178.752l178.752-178.752zM800 384c-123.52 0-224-100.48-224-224s100.48-224 224-224 224 100.48 224 224-100.48 224-224 224zM640 160c0 88.192 71.744 160 160 160 32.576 0 62.784-9.856 88.128-26.624l-221.44-221.44c-16.832 25.28-26.688 55.488-26.688 88.064zM800 0c-32.576 0-62.784 9.856-88.128 26.624l221.44 221.44c16.832-25.28 26.688-55.488 26.688-88.064 0-88.192-71.744-160-160-160z" />
<glyph unicode="&#xe95e;" glyph-name="ellipsis-h-o" d="M512 576c-70.592 0-128-57.408-128-128s57.408-128 128-128 128 57.408 128 128-57.408 128-128 128zM512 384c-35.264 0-64 28.736-64 64s28.736 64 64 64 64-28.736 64-64-28.736-64-64-64zM128 576c-70.592 0-128-57.408-128-128s57.408-128 128-128 128 57.408 128 128-57.408 128-128 128zM128 384c-35.264 0-64 28.736-64 64s28.736 64 64 64 64-28.736 64-64-28.736-64-64-64zM896 576c-70.592 0-128-57.408-128-128s57.408-128 128-128 128 57.408 128 128-57.408 128-128 128zM896 384c-35.264 0-64 28.736-64 64s28.736 64 64 64 64-28.736 64-64-28.736-64-64-64z" />
</font>
</defs>
</svg>
